  0
SECTION
  2
HEADER
  9
$ACADVER
  1
AC1015
  9
$ACADMAINTVER
 70
     6
  9
$DWGCODEPAGE
  3
ANSI_932
  9
$INSBASE
 10
0.0
 20
0.0
 30
0.0
  9
$EXTMIN
 10
98.70735865027495
 20
40.0
 30
0.0
  9
$EXTMAX
 10
372.0
 20
472.3745679363341
 30
0.0
  9
$LIMMIN
 10
98.70735865027495
 20
40.0
  9
$LIMMAX
 10
372.0
 20
472.3745679363341
  9
$ORTHOMODE
 70
     0
  9
$REGENMODE
 70
     1
  9
$FILLMODE
 70
     1
  9
$QTEXTMODE
 70
     0
  9
$MIRRTEXT
 70
     1
  9
$LTSCALE
 40
0.2496651048451273
  9
$ATTMODE
 70
     1
  9
$TEXTSIZE
 40
2.5
  9
$TRACEWID
 40
1.0
  9
$TEXTSTYLE
  7
Standard
  9
$CLAYER
  8
0
  9
$CELTYPE
  6
ByLayer
  9
$CECOLOR
 62
   256
  9
$CELTSCALE
 40
1.0
  9
$DISPSILH
 70
     0
  9
$DIMSCALE
 40
1.0
  9
$DIMASZ
 40
2.5
  9
$DIMEXO
 40
0.625
  9
$DIMDLI
 40
3.75
  9
$DIMRND
 40
0.0
  9
$DIMDLE
 40
0.0
  9
$DIMEXE
 40
1.25
  9
$DIMTP
 40
0.0
  9
$DIMTM
 40
0.0
  9
$DIMTXT
 40
2.5
  9
$DIMCEN
 40
2.5
  9
$DIMTSZ
 40
0.0
  9
$DIMTOL
 70
     0
  9
$DIMLIM
 70
     0
  9
$DIMTIH
 70
     0
  9
$DIMTOH
 70
     0
  9
$DIMSE1
 70
     0
  9
$DIMSE2
 70
     0
  9
$DIMTAD
 70
     1
  9
$DIMZIN
 70
     0
  9
$DIMBLK
  1

  9
$DIMASO
 70
     1
  9
$DIMSHO
 70
     1
  9
$DIMPOST
  1

  9
$DIMAPOST
  1

  9
$DIMALT
 70
     0
  9
$DIMALTD
 70
     3
  9
$DIMALTF
 40
0.03937007874016
  9
$DIMLFAC
 40
1.0
  9
$DIMTOFL
 70
     1
  9
$DIMTVP
 40
0.0
  9
$DIMTIX
 70
     0
  9
$DIMSOXD
 70
     0
  9
$DIMSAH
 70
     0
  9
$DIMBLK1
  1

  9
$DIMBLK2
  1

  9
$DIMSTYLE
  2
Standard
  9
$DIMCLRD
 70
     0
  9
$DIMCLRE
 70
     0
  9
$DIMCLRT
 70
     0
  9
$DIMTFAC
 40
0.75
  9
$DIMGAP
 40
0.625
  9
$DIMJUST
 70
     0
  9
$DIMSD1
 70
     0
  9
$DIMSD2
 70
     0
  9
$DIMTOLJ
 70
     0
  9
$DIMTZIN
 70
     8
  9
$DIMALTZ
 70
     0
  9
$DIMALTTZ
 70
     0
  9
$DIMUPT
 70
     0
  9
$DIMDEC
 70
     2
  9
$DIMTDEC
 70
     2
  9
$DIMALTU
 70
     2
  9
$DIMALTTD
 70
     3
  9
$DIMTXSTY
  7
Standard
  9
$DIMAUNIT
 70
     0
  9
$DIMADEC
 70
     0
  9
$DIMALTRND
 40
0.0
  9
$DIMAZIN
 70
     0
  9
$DIMDSEP
 70
    46
  9
$DIMATFIT
 70
     3
  9
$DIMFRAC
 70
     0
  9
$DIMLDRBLK
  1

  9
$DIMLUNIT
 70
     2
  9
$DIMLWD
 70
    -2
  9
$DIMLWE
 70
    -2
  9
$DIMTMOVE
 70
     0
  9
$LUNITS
 70
     2
  9
$LUPREC
 70
     4
  9
$SKETCHINC
 40
1.0
  9
$FILLETRAD
 40
10.0
  9
$AUNITS
 70
     0
  9
$AUPREC
 70
     0
  9
$MENU
  1
.
  9
$ELEVATION
 40
0.0
  9
$PELEVATION
 40
0.0
  9
$THICKNESS
 40
0.0
  9
$LIMCHECK
 70
     0
  9
$CHAMFERA
 40
10.0
  9
$CHAMFERB
 40
10.0
  9
$CHAMFERC
 40
20.0
  9
$CHAMFERD
 40
0.0
  9
$SKPOLY
 70
     0
  9
$TDCREATE
 40
2457922.721717002
  9
$TDUCREATE
 40
2457922.346717002
  9
$TDUPDATE
 40
2457922.721717905
  9
$TDUUPDATE
 40
2457922.346717905
  9
$TDINDWG
 40
0.0000000116
  9
$TDUSRTIMER
 40
0.0000000116
  9
$USRTIMER
 70
     1
  9
$ANGBASE
 50
0.0
  9
$ANGDIR
 70
     0
  9
$PDMODE
 70
     0
  9
$PDSIZE
 40
0.0
  9
$PLINEWID
 40
0.0
  9
$SPLFRAME
 70
     0
  9
$SPLINETYPE
 70
     6
  9
$SPLINESEGS
 70
     8
  9
$HANDSEED
  5
48F
  9
$SURFTAB1
 70
     6
  9
$SURFTAB2
 70
     6
  9
$SURFTYPE
 70
     6
  9
$SURFU
 70
     6
  9
$SURFV
 70
     6
  9
$UCSBASE
  2

  9
$UCSNAME
  2

  9
$UCSORG
 10
0.0
 20
0.0
 30
0.0
  9
$UCSXDIR
 10
1.0
 20
0.0
 30
0.0
  9
$UCSYDIR
 10
0.0
 20
1.0
 30
0.0
  9
$UCSORTHOREF
  2

  9
$UCSORTHOVIEW
 70
     0
  9
$UCSORGTOP
 10
0.0
 20
0.0
 30
0.0
  9
$UCSORGBOTTOM
 10
0.0
 20
0.0
 30
0.0
  9
$UCSORGLEFT
 10
0.0
 20
0.0
 30
0.0
  9
$UCSORGRIGHT
 10
0.0
 20
0.0
 30
0.0
  9
$UCSORGFRONT
 10
0.0
 20
0.0
 30
0.0
  9
$UCSORGBACK
 10
0.0
 20
0.0
 30
0.0
  9
$PUCSBASE
  2

  9
$PUCSNAME
  2

  9
$PUCSORG
 10
0.0
 20
0.0
 30
0.0
  9
$PUCSXDIR
 10
1.0
 20
0.0
 30
0.0
  9
$PUCSYDIR
 10
0.0
 20
1.0
 30
0.0
  9
$PUCSORTHOREF
  2

  9
$PUCSORTHOVIEW
 70
     0
  9
$PUCSORGTOP
 10
0.0
 20
0.0
 30
0.0
  9
$PUCSORGBOTTOM
 10
0.0
 20
0.0
 30
0.0
  9
$PUCSORGLEFT
 10
0.0
 20
0.0
 30
0.0
  9
$PUCSORGRIGHT
 10
0.0
 20
0.0
 30
0.0
  9
$PUCSORGFRONT
 10
0.0
 20
0.0
 30
0.0
  9
$PUCSORGBACK
 10
0.0
 20
0.0
 30
0.0
  9
$USERI1
 70
     0
  9
$USERI2
 70
     0
  9
$USERI3
 70
     0
  9
$USERI4
 70
     0
  9
$USERI5
 70
     0
  9
$USERR1
 40
0.0
  9
$USERR2
 40
0.0
  9
$USERR3
 40
0.0
  9
$USERR4
 40
0.0
  9
$USERR5
 40
0.0
  9
$WORLDVIEW
 70
     1
  9
$SHADEDGE
 70
     3
  9
$SHADEDIF
 70
    70
  9
$TILEMODE
 70
     1
  9
$MAXACTVP
 70
    64
  9
$PINSBASE
 10
0.0
 20
0.0
 30
0.0
  9
$PLIMCHECK
 70
     0
  9
$PEXTMIN
 10
1.000000000000000E+20
 20
1.000000000000000E+20
 30
1.000000000000000E+20
  9
$PEXTMAX
 10
-1.000000000000000E+20
 20
-1.000000000000000E+20
 30
-1.000000000000000E+20
  9
$PLIMMIN
 10
0.0
 20
0.0
  9
$PLIMMAX
 10
420.0
 20
297.0
  9
$UNITMODE
 70
     0
  9
$VISRETAIN
 70
     1
  9
$PLINEGEN
 70
     0
  9
$PSLTSCALE
 70
     0
  9
$TREEDEPTH
 70
  3020
  9
$CMLSTYLE
  2
Standard
  9
$CMLJUST
 70
     0
  9
$CMLSCALE
 40
20.0
  9
$PROXYGRAPHICS
 70
     1
  9
$MEASUREMENT
 70
     1
  9
$CELWEIGHT
370
    -1
  9
$ENDCAPS
280
     0
  9
$JOINSTYLE
280
     0
  9
$LWDISPLAY
290
     0
  9
$INSUNITS
 70
     4
  9
$HYPERLINKBASE
  1

  9
$STYLESHEET
  1

  9
$XEDIT
290
     1
  9
$CEPSNTYPE
380
     0
  9
$PSTYLEMODE
290
     1
  9
$FINGERPRINTGUID
  2
{AE72A05C-D4C9-4F4B-95CD-B52887EF54AF}
  9
$VERSIONGUID
  2
{FAEB1C32-E019-11D5-929B-00C0DF256EC4}
  9
$EXTNAMES
290
     1
  9
$PSVPSCALE
 40
0.0
  9
$OLESTARTUP
290
     0
  0
ENDSEC
  0
SECTION
  2
CLASSES
  0
CLASS
  1
ACDBDICTIONARYWDFLT
  2
AcDbDictionaryWithDefault
  3
ObjectDBX Classes
 90
        0
280
     0
281
     0
  0
CLASS
  1
VISUALSTYLE
  2
AcDbVisualStyle
  3
ObjectDBX Classes
 90
     4095
280
     0
281
     0
  0
CLASS
  1
MATERIAL
  2
AcDbMaterial
  3
ObjectDBX Classes
 90
     1153
280
     0
281
     0
  0
CLASS
  1
SCALE
  2
AcDbScale
  3
ObjectDBX Classes
 90
     1153
280
     0
281
     0
  0
CLASS
  1
DICTIONARYVAR
  2
AcDbDictionaryVar
  3
ObjectDBX Classes
 90
        0
280
     0
281
     0
  0
CLASS
  1
ACDBPLACEHOLDER
  2
AcDbPlaceHolder
  3
ObjectDBX Classes
 90
        0
280
     0
281
     0
  0
CLASS
  1
LAYOUT
  2
AcDbLayout
  3
ObjectDBX Classes
 90
        0
280
     0
281
     0
  0
ENDSEC
  0
SECTION
  2
TABLES
  0
TABLE
  2
VPORT
  5
8
330
0
100
AcDbSymbolTable
 70
     1
  0
VPORT
  5
29
330
8
100
AcDbSymbolTableRecord
100
AcDbViewportTableRecord
  2
*Active
 70
     0
 10
0.0
 20
0.0
 11
1.0
 21
1.0
 12
235.3536793251375
 22
256.187283968167
 13
0.0
 23
0.0
 14
10.0
 24
10.0
 15
10.0
 25
10.0
 16
0.0
 26
0.0
 36
1.0
 17
0.0
 27
0.0
 37
0.0
 40
475.6120247299675
 41
1.333333333333333
 42
50.0
 43
0.0
 44
0.0
 50
0.0
 51
0.0
 71
     0
 72
 20000
 73
     1
 74
     3
 75
     0
 76
     0
 77
     0
 78
     0
281
     0
 65
     1
110
0.0
120
0.0
130
0.0
111
1.0
121
0.0
131
0.0
112
0.0
122
1.0
132
0.0
 79
     0
146
0.0
  0
ENDTAB
  0
TABLE
  2
LTYPE
  5
5
330
0
100
AcDbSymbolTable
 70
     7
  0
LTYPE
  5
14
330
5
100
AcDbSymbolTableRecord
100
AcDbLinetypeTableRecord
  2
ByBlock
 70
     0
  3

 72
    65
 73
     0
 40
0.0
  0
LTYPE
  5
15
330
5
100
AcDbSymbolTableRecord
100
AcDbLinetypeTableRecord
  2
ByLayer
 70
     0
  3

 72
    65
 73
     0
 40
0.0
  0
LTYPE
  5
16
330
5
100
AcDbSymbolTableRecord
100
AcDbLinetypeTableRecord
  2
Continuous
 70
     0
  3
Solid line
 72
    65
 73
     0
 40
0.0
  0
LTYPE
  5
40
330
5
100
AcDbSymbolTableRecord
100
AcDbLinetypeTableRecord
  2
DASHED
 70
     0
  3
ICAD/SX(2) Dashed __ __ __ __ __ __ __ __ __ __ __ __ __ _
 72
    65
 73
     2
 40
19.05
 49
12.7
 74
     0
 49
-6.35
 74
     0
  0
LTYPE
  5
41
330
5
100
AcDbSymbolTableRecord
100
AcDbLinetypeTableRecord
  2
CENTER
 70
     0
  3
ICAD/SX(3) Center ____ _ ____ _ ____ _ ____ _ ____ _ ____
 72
    65
 73
     4
 40
50.8
 49
31.75
 74
     0
 49
-6.35
 74
     0
 49
6.35
 74
     0
 49
-6.35
 74
     0
  0
LTYPE
  5
42
330
5
100
AcDbSymbolTableRecord
100
AcDbLinetypeTableRecord
  2
PHANTOM
 70
     0
  3
ICAD/SX(4) Phantom ______  __  __  ______  __  __  ______
 72
    65
 73
     6
 40
63.5
 49
31.75
 74
     0
 49
-6.35
 74
     0
 49
6.35
 74
     0
 49
-6.35
 74
     0
 49
6.35
 74
     0
 49
-6.35
 74
     0
  0
LTYPE
  5
43
330
5
100
AcDbSymbolTableRecord
100
AcDbLinetypeTableRecord
  2
DOT
 70
     0
  3
ICAD/SX(5) Dot . . . . . . . . . . . . . . . . . . . . . . . .
 72
    65
 73
     2
 40
6.35
 49
0.0
 74
     0
 49
-6.35
 74
     0
  0
LTYPE
  5
44
330
5
100
AcDbSymbolTableRecord
100
AcDbLinetypeTableRecord
  2
HIDDEN
 70
     0
  3
ICAD/SX(6) Hidden __ __ __ __ __ __ __ __ __ __ __ __ __ __
 72
    65
 73
     2
 40
9.525
 49
6.35
 74
     0
 49
-3.175
 74
     0
  0
LTYPE
  5
45
330
5
100
AcDbSymbolTableRecord
100
AcDbLinetypeTableRecord
  2
DOTSX
 70
     0
  3
ICAD/SX(5) Dot . . . . . . . . . . . . . . . . . . . . . . . .
 72
    65
 73
     2
 40
6.35
 49
3.175
 74
     0
 49
-3.175
 74
     0
  0
ENDTAB
  0
TABLE
  2
LAYER
  5
2
330
0
100
AcDbSymbolTable
 70
    10
  0
LAYER
  5
10
330
2
100
AcDbSymbolTableRecord
100
AcDbLayerTableRecord
  2
0
 70
     0
 62
     7
  6
Continuous
370
    -3
390
F
  0
LAYER
  5
46
330
2
100
AcDbSymbolTableRecord
100
AcDbLayerTableRecord
  2
NoLayerName_001
 70
     0
 62
     7
  6
Continuous
370
    -3
390
F
  0
LAYER
  5
47
330
2
100
AcDbSymbolTableRecord
100
AcDbLayerTableRecord
  2
NoLayerName_002
 70
     0
 62
     7
  6
Continuous
370
    -3
390
F
  0
LAYER
  5
48
330
2
100
AcDbSymbolTableRecord
100
AcDbLayerTableRecord
  2
NoLayerName_003
 70
     0
 62
     7
  6
Continuous
370
    -3
390
F
  0
LAYER
  5
49
330
2
100
AcDbSymbolTableRecord
100
AcDbLayerTableRecord
  2
NoLayerName_004
 70
     0
 62
     7
  6
Continuous
370
    -3
390
F
  0
LAYER
  5
4A
330
2
100
AcDbSymbolTableRecord
100
AcDbLayerTableRecord
  2
NoLayerName_005
 70
     0
 62
     7
  6
Continuous
370
    -3
390
F
  0
LAYER
  5
4B
330
2
100
AcDbSymbolTableRecord
100
AcDbLayerTableRecord
  2
NoLayerName_006
 70
     0
 62
     7
  6
Continuous
370
    -3
390
F
  0
LAYER
  5
4C
330
2
100
AcDbSymbolTableRecord
100
AcDbLayerTableRecord
  2
NoLayerName_007
 70
     0
 62
     7
  6
Continuous
370
    -3
390
F
  0
LAYER
  5
4D
330
2
100
AcDbSymbolTableRecord
100
AcDbLayerTableRecord
  2
Defpoints
 70
     0
 62
     7
  6
Continuous
290
     0
370
    -3
390
F
  0
LAYER
  5
4E
330
2
100
AcDbSymbolTableRecord
100
AcDbLayerTableRecord
  2
SX_DraftLine
 70
     0
 62
     7
  6
Continuous
290
     0
370
    -3
390
F
  0
ENDTAB
  0
TABLE
  2
STYLE
  5
3
330
0
100
AcDbSymbolTable
 70
     2
  0
STYLE
  5
11
330
3
100
AcDbSymbolTableRecord
100
AcDbTextStyleTableRecord
  2
Standard
 70
     0
 40
0.0
 41
1.0
 50
0.0
 71
     0
 42
2.5
  3
txt
  4
extfont2
  0
STYLE
  5
3F
330
3
100
AcDbSymbolTableRecord
100
AcDbTextStyleTableRecord
  2

 70
     1
 40
0.0
 41
1.0
 50
0.0
 71
     0
 42
2.5
  3
ltypeshp.shx
  4

  0
ENDTAB
  0
TABLE
  2
VIEW
  5
6
330
0
100
AcDbSymbolTable
 70
     0
  0
ENDTAB
  0
TABLE
  2
UCS
  5
7
330
0
100
AcDbSymbolTable
 70
     0
  0
ENDTAB
  0
TABLE
  2
APPID
  5
9
330
0
100
AcDbSymbolTable
 70
     4
  0
APPID
  5
12
330
9
100
AcDbSymbolTableRecord
100
AcDbRegAppTableRecord
  2
ACAD
 70
     0
  0
APPID
  5
466
330
9
100
AcDbSymbolTableRecord
100
AcDbRegAppTableRecord
  2
ACAD_DSTYLE_DIM_LINETYPE
 70
     0
  0
APPID
  5
467
330
9
100
AcDbSymbolTableRecord
100
AcDbRegAppTableRecord
  2
ACAD_DSTYLE_DIM_EXT1_LINETYPE
 70
     0
  0
APPID
  5
468
330
9
100
AcDbSymbolTableRecord
100
AcDbRegAppTableRecord
  2
ACAD_DSTYLE_DIM_EXT2_LINETYPE
 70
     0
  0
ENDTAB
  0
TABLE
  2
DIMSTYLE
  5
A
330
0
100
AcDbSymbolTable
 70
     1
100
AcDbDimStyleTable
  0
DIMSTYLE
105
27
102
{ACAD_REACTORS
330
33D
102
}
330
A
100
AcDbSymbolTableRecord
100
AcDbDimStyleTableRecord
  2
Standard
 70
     0
 41
2.5
 42
0.625
 43
3.75
 44
1.25
 73
     0
 74
     0
 77
     1
140
2.5
141
2.5
143
0.03937007874016
146
0.75
147
0.625
171
     3
172
     1
178
     0
271
     2
272
     2
274
     3
283
     0
284
     8
340
11
  0
ENDTAB
  0
TABLE
  2
BLOCK_RECORD
  5
1
330
0
100
AcDbSymbolTable
 70
     3
  0
BLOCK_RECORD
  5
1F
330
1
100
AcDbSymbolTableRecord
100
AcDbBlockTableRecord
  2
*Model_Space
340
22
  0
BLOCK_RECORD
  5
1B
330
1
100
AcDbSymbolTableRecord
100
AcDbBlockTableRecord
  2
*Paper_Space
340
1E
  0
BLOCK_RECORD
  5
23
330
1
100
AcDbSymbolTableRecord
100
AcDbBlockTableRecord
  2
*Paper_Space0
340
0
  0
BLOCK_RECORD
  5
33F
330
1
100
AcDbSymbolTableRecord
100
AcDbBlockTableRecord
  2
_OPEN
340
0
102
{BLKREFS
331
34B
331
34A
102
}
  0
BLOCK_RECORD
  5
345
330
1
100
AcDbSymbolTableRecord
100
AcDbBlockTableRecord
  2
*D2
340
0
  0
ENDTAB
  0
ENDSEC
  0
SECTION
  2
BLOCKS
  0
BLOCK
  5
20
330
1F
100
AcDbEntity
  8
0
100
AcDbBlockBegin
  2
*Model_Space
 70
     0
 10
0.0
 20
0.0
 30
0.0
  3
*Model_Space
  1

  0
ENDBLK
  5
21
330
1F
100
AcDbEntity
  8
0
100
AcDbBlockEnd
  0
BLOCK
  5
1C
330
1B
100
AcDbEntity
 67
     1
  8
0
100
AcDbBlockBegin
  2
*Paper_Space
 70
     0
 10
0.0
 20
0.0
 30
0.0
  3
*Paper_Space
  1

  0
ENDBLK
  5
1D
330
1B
100
AcDbEntity
 67
     1
  8
0
100
AcDbBlockEnd
  0
BLOCK
  5
24
330
23
100
AcDbEntity
  8
0
100
AcDbBlockBegin
  2
*Paper_Space0
 70
     0
 10
0.0
 20
0.0
 30
0.0
  3
*Paper_Space0
  1

  0
ENDBLK
  5
25
330
23
100
AcDbEntity
  8
0
100
AcDbBlockEnd
  0
BLOCK
  5
343
330
33F
100
AcDbEntity
  8
0
100
AcDbBlockBegin
  2
_OPEN
 70
     0
 10
0.0
 20
0.0
 30
0.0
  3
_OPEN
  1

  0
LINE
  5
340
330
33F
100
AcDbEntity
  8
0
  6
ByBlock
 62
     0
370
    -2
100
AcDbLine
 10
-1.0
 20
0.166667
 30
0.0
 11
0.0
 21
0.0
 31
0.0
  0
LINE
  5
341
330
33F
100
AcDbEntity
  8
0
  6
ByBlock
 62
     0
370
    -2
100
AcDbLine
 10
0.0
 20
0.0
 30
0.0
 11
-1.0
 21
-0.166667
 31
0.0
  0
LINE
  5
342
330
33F
100
AcDbEntity
  8
0
  6
ByBlock
 62
     0
370
    -2
100
AcDbLine
 10
0.0
 20
0.0
 30
0.0
 11
-1.0
 21
0.0
 31
0.0
  0
ENDBLK
  5
344
330
33F
100
AcDbEntity
  8
0
100
AcDbBlockEnd
  0
BLOCK
  5
350
330
345
100
AcDbEntity
  8
0
100
AcDbBlockBegin
  2
*D2
 70
     1
 10
0.0
 20
0.0
 30
0.0
  3
*D2
  1

  0
LINE
  5
346
330
345
100
AcDbEntity
  8
NoLayerName_001
  6
Continuous
 62
     0
370
    25
100
AcDbLine
 10
192.734985062451
 20
306.7674254245891
 30
0.0
 11
192.734985062451
 21
301.9824364089254
 31
0.0
  0
LINE
  5
347
330
345
100
AcDbEntity
  8
NoLayerName_001
  6
Continuous
 62
     0
370
    25
100
AcDbLine
 10
189.734985062451
 20
302.9824364089254
 30
0.0
 11
192.734985062451
 21
302.9824364089254
 31
0.0
  0
LINE
  5
348
330
345
100
AcDbEntity
  8
NoLayerName_001
  6
Continuous
 62
     0
370
    25
100
AcDbLine
 10
188.9349850624509
 20
302.9824364089254
 30
0.0
 11
188.1349850624509
 21
302.9824364089254
 31
0.0
  0
LINE
  5
349
330
345
100
AcDbEntity
  8
NoLayerName_001
  6
Continuous
 62
     0
370
    25
100
AcDbLine
 10
193.534985062451
 20
302.9824364089254
 30
0.0
 11
194.334985062451
 21
302.9824364089254
 31
0.0
  0
INSERT
  5
34A
330
345
100
AcDbEntity
  8
NoLayerName_001
 62
     0
370
    25
100
AcDbBlockReference
  2
_OPEN
 10
189.734985062451
 20
302.9824364089254
 30
0.0
 41
0.8
 42
0.8
 43
0.8
  0
INSERT
  5
34B
330
345
100
AcDbEntity
  8
NoLayerName_001
 62
     0
370
    25
100
AcDbBlockReference
  2
_OPEN
 10
192.734985062451
 20
302.9824364089254
 30
0.0
 41
0.8
 42
0.8
 43
0.8
 50
180.0
  0
MTEXT
  5
34C
330
345
100
AcDbEntity
  8
NoLayerName_001
 62
     0
370
    25
100
AcDbMText
 10
191.234985062451
 20
305.3324364327673
 30
0.0
 40
2.700000047683716
 41
0.0
 71
     5
 72
     1
  1
\W0.8500;3
 73
     1
 44
1.0
  0
POINT
  5
34D
330
345
100
AcDbEntity
  8
Defpoints
 62
     0
100
AcDbPoint
 10
189.734985062451
 20
300.8674254245892
 30
0.0
  0
POINT
  5
34E
330
345
100
AcDbEntity
  8
Defpoints
 62
     0
100
AcDbPoint
 10
192.734985062451
 20
307.3674254245891
 30
0.0
  0
POINT
  5
34F
330
345
100
AcDbEntity
  8
Defpoints
 62
     0
100
AcDbPoint
 10
192.734985062451
 20
302.9824364089254
 30
0.0
  0
ENDBLK
  5
351
330
345
100
AcDbEntity
  8
0
100
AcDbBlockEnd
  0
ENDSEC
  0
SECTION
  2
ENTITIES
  0
POINT
  5
4F
330
1F
100
AcDbEntity
  8
NoLayerName_001
  6
Continuous
 62
     7
 60
     1
370
    50
100
AcDbPoint
 10
0.0
 20
0.0
 30
0.0
  0
LINE
  5
50
330
1F
100
AcDbEntity
  8
NoLayerName_001
  6
Continuous
 62
    60
370
    50
100
AcDbLine
 10
192.234985062451
 20
307.3674254245891
 30
0.0
 11
189.734985062451
 21
307.3674254245891
 31
0.0
  0
LINE
  5
51
330
1F
100
AcDbEntity
  8
NoLayerName_005
  6
Continuous
 62
   110
370
    50
100
AcDbLine
 10
204.734985062451
 20
341.3674254245891
 30
0.0
 11
204.734985062451
 21
345.8674254245891
 31
0.0
  0
LINE
  5
52
330
1F
100
AcDbEntity
  8
NoLayerName_001
  6
Continuous
 62
    60
370
    50
100
AcDbLine
 10
192.234985062451
 20
317.3674254245891
 30
0.0
 11
189.734985062451
 21
317.3674254245891
 31
0.0
  0
LINE
  5
53
330
1F
100
AcDbEntity
  8
NoLayerName_001
  6
Continuous
 62
    60
370
    50
100
AcDbLine
 10
192.734985062451
 20
307.8674254245891
 30
0.0
 11
192.734985062451
 21
316.8674254245891
 31
0.0
  0
LINE
  5
54
330
1F
100
AcDbEntity
  8
NoLayerName_001
  6
Continuous
 62
    60
370
    50
100
AcDbLine
 10
192.234985062451
 20
367.3674254245892
 30
0.0
 11
189.734985062451
 21
367.3674254245892
 31
0.0
  0
LINE
  5
55
330
1F
100
AcDbEntity
  8
NoLayerName_001
  6
Continuous
 62
    60
370
    50
100
AcDbLine
 10
192.234985062451
 20
357.3674254245891
 30
0.0
 11
189.734985062451
 21
357.3674254245891
 31
0.0
  0
LINE
  5
56
330
1F
100
AcDbEntity
  8
NoLayerName_001
  6
Continuous
 62
    60
370
    50
100
AcDbLine
 10
192.734985062451
 20
357.8674254245891
 30
0.0
 11
192.734985062451
 21
366.8674254245891
 31
0.0
  0
LINE
  5
57
330
1F
100
AcDbEntity
  8
NoLayerName_001
  6
Continuous
 62
    60
370
    50
100
AcDbLine
 10
244.234985062451
 20
359.3674254245891
 30
0.0
 11
241.734985062451
 21
359.3674254245891
 31
0.0
  0
LINE
  5
58
330
1F
100
AcDbEntity
  8
NoLayerName_001
  6
Continuous
 62
    60
370
    50
100
AcDbLine
 10
244.234985062451
 20
365.3674254245892
 30
0.0
 11
241.734985062451
 21
365.3674254245892
 31
0.0
  0
ARC
  5
59
330
1F
100
AcDbEntity
  8
NoLayerName_001
  6
Continuous
 62
    60
370
    50
100
AcDbCircle
 10
192.234985062451
 20
316.8674254245891
 30
0.0
 40
0.5
100
AcDbArc
 50
0.0
 51
90.0
  0
ARC
  5
5A
330
1F
100
AcDbEntity
  8
NoLayerName_001
  6
Continuous
 62
    60
370
    50
100
AcDbCircle
 10
192.234985062451
 20
307.8674254245891
 30
0.0
 40
0.5
100
AcDbArc
 50
270.0
 51
0.0
  0
ARC
  5
5B
330
1F
100
AcDbEntity
  8
NoLayerName_001
  6
Continuous
 62
    60
370
    50
100
AcDbCircle
 10
191.234985062451
 20
332.8674254245891
 30
0.0
 40
0.5
100
AcDbArc
 50
270.0
 51
0.0
  0
ARC
  5
5C
330
1F
100
AcDbEntity
  8
NoLayerName_001
  6
Continuous
 62
    60
370
    50
100
AcDbCircle
 10
191.234985062451
 20
341.8674254245891
 30
0.0
 40
0.5
100
AcDbArc
 50
0.0
 51
90.0
  0
ARC
  5
5D
330
1F
100
AcDbEntity
  8
NoLayerName_001
  6
Continuous
 62
    60
370
    50
100
AcDbCircle
 10
192.234985062451
 20
366.8674254245892
 30
0.0
 40
0.5
100
AcDbArc
 50
0.0
 51
90.0
  0
ARC
  5
5E
330
1F
100
AcDbEntity
  8
NoLayerName_001
  6
Continuous
 62
    60
370
    50
100
AcDbCircle
 10
192.234985062451
 20
357.8674254245891
 30
0.0
 40
0.5
100
AcDbArc
 50
270.0
 51
0.0
  0
LINE
  5
5F
330
1F
100
AcDbEntity
  8
NoLayerName_001
  6
Continuous
 62
    60
370
    50
100
AcDbLine
 10
244.234985062451
 20
309.367425424589
 30
0.0
 11
241.734985062451
 21
309.367425424589
 31
0.0
  0
LINE
  5
60
330
1F
100
AcDbEntity
  8
NoLayerName_001
  6
Continuous
 62
    60
370
    50
100
AcDbLine
 10
244.234985062451
 20
315.3674254245891
 30
0.0
 11
241.734985062451
 21
315.3674254245891
 31
0.0
  0
LINE
  5
61
330
1F
100
AcDbEntity
  8
NoLayerName_003
  6
CENTER
 62
    30
370
    25
100
AcDbLine
 10
223.2182998359988
 20
357.3674254245891
 30
0.0
 11
227.3046089440812
 21
357.3674254245891
 31
0.0
  0
LINE
  5
62
330
1F
100
AcDbEntity
  8
NoLayerName_006
  6
Continuous
 62
    60
370
    50
100
AcDbLine
 10
224.2920015428686
 20
361.4938608056245
 30
0.0
 11
223.1060495364241
 21
360.4766710759541
 31
0.0
  0
LINE
  5
63
330
1F
100
AcDbEntity
  8
NoLayerName_006
  6
Continuous
 62
    60
370
    50
100
AcDbLine
 10
223.5870911697114
 20
362.7148013867152
 30
0.0
 11
222.1132030201259
 21
362.1963316863003
 31
0.0
  0
LINE
  5
64
330
1F
100
AcDbEntity
  8
NoLayerName_006
  6
Continuous
 62
    60
370
    50
100
AcDbLine
 10
209.3744148997905
 20
362.2195535356217
 30
0.0
 11
207.8283389353969
 21
362.6338233417181
 31
0.0
  0
LINE
  5
65
330
1F
100
AcDbEntity
  8
NoLayerName_006
  6
Continuous
 62
    60
370
    50
100
AcDbLine
 10
207.1901609588651
 20
361.5190493284101
 30
0.0
 11
208.3780631242857
 21
360.5099880088096
 31
0.0
  0
LINE
  5
66
330
1F
100
AcDbEntity
  8
NoLayerName_001
  6
Continuous
 62
    60
370
    50
100
AcDbLine
 10
218.6521754916139
 20
336.6674254245892
 30
0.0
 11
217.5013372357165
 21
336.6674254245892
 31
0.0
  0
LINE
  5
67
330
1F
100
AcDbEntity
  8
NoLayerName_001
  6
Continuous
 62
    60
370
    50
100
AcDbLine
 10
218.6521754916139
 20
338.0674254245891
 30
0.0
 11
217.5013372357165
 21
338.0674254245891
 31
0.0
  0
LINE
  5
68
330
1F
100
AcDbEntity
  8
NoLayerName_006
  6
Continuous
 62
    60
370
    50
100
AcDbLine
 10
223.2182998359988
 20
357.3674254245891
 30
0.0
 11
208.2516702889031
 21
357.3674254245891
 31
0.0
  0
ARC
  5
69
330
1F
100
AcDbEntity
  8
NoLayerName_001
  6
Continuous
 62
    60
370
    50
100
AcDbCircle
 10
215.734985062451
 20
337.3674254245891
 30
0.0
 40
3.0
100
AcDbArc
 50
13.49339882155257
 51
346.5066011784497
  0
ARC
  5
6A
330
1F
100
AcDbEntity
  8
NoLayerName_006
  6
Continuous
 62
    60
370
    50
100
AcDbCircle
 10
215.734985062451
 20
357.3674254245891
 30
0.0
 40
9.5
100
AcDbArc
 50
34.25532033574823
 51
146.3335155448687
  0
ARC
  5
6B
330
1F
100
AcDbEntity
  8
NoLayerName_006
  6
DOTSX
 62
     7
370
    25
100
AcDbCircle
 10
215.734985062451
 20
357.3674254245891
 30
0.0
 40
9.5
100
AcDbArc
 50
26.33351554486863
 51
34.25532033574818
  0
ARC
  5
6C
330
1F
100
AcDbEntity
  8
NoLayerName_006
  6
DOTSX
 62
     7
370
    25
100
AcDbCircle
 10
215.734985062451
 20
357.3674254245891
 30
0.0
 40
8.0
100
AcDbArc
 50
22.87087935797149
 51
37.12912064202886
  0
LINE
  5
6D
330
1F
100
AcDbEntity
  8
NoLayerName_003
  6
CENTER
 62
    30
370
    25
100
AcDbLine
 10
179.6395694147089
 20
337.3674254245891
 30
0.0
 11
245.0819192153079
 21
337.3674254245891
 31
0.0
  0
ARC
  5
6E
330
1F
100
AcDbEntity
  8
NoLayerName_006
  6
DOTSX
 62
     7
370
    25
100
AcDbCircle
 10
215.734985062451
 20
357.3674254245891
 30
0.0
 40
9.5
100
AcDbArc
 50
146.3335155448687
 51
154.0865437649314
  0
ARC
  5
6F
330
1F
100
AcDbEntity
  8
NoLayerName_006
  6
DOTSX
 62
     7
370
    25
100
AcDbCircle
 10
215.734985062451
 20
357.3674254245891
 30
0.0
 40
8.0
100
AcDbArc
 50
142.8708793579714
 51
157.1291206420288
  0
ARC
  5
70
330
1F
100
AcDbEntity
  8
NoLayerName_006
  6
Continuous
 62
    60
370
    50
100
AcDbCircle
 10
215.734985062451
 20
357.3674254245891
 30
0.0
 40
8.0
100
AcDbArc
 50
157.1291206420288
 51
176.1774462707256
  0
ARC
  5
71
330
1F
100
AcDbEntity
  8
NoLayerName_006
  6
Continuous
 62
    60
370
    50
100
AcDbCircle
 10
215.734985062451
 20
357.3674254245891
 30
0.0
 40
9.5
100
AcDbArc
 50
154.0865437649314
 51
26.33351554486863
  0
LINE
  5
72
330
1F
100
AcDbEntity
  8
NoLayerName_001
  6
Continuous
 62
    60
370
    50
100
AcDbLine
 10
181.734985062451
 20
367.3674254245891
 30
0.0
 11
181.734985062451
 21
385.8674254245891
 31
0.0
  0
ARC
  5
73
330
1F
100
AcDbEntity
  8
NoLayerName_006
  6
Continuous
 62
    60
370
    50
100
AcDbCircle
 10
215.734985062451
 20
357.3674254245891
 30
0.0
 40
8.0
100
AcDbArc
 50
3.822553729274355
 51
22.66198782570826
  0
LINE
  5
74
330
1F
100
AcDbEntity
  8
NoLayerName_001
  6
Continuous
 62
    60
370
    50
100
AcDbLine
 10
180.734985062451
 20
316.3674254245892
 30
0.0
 11
180.734985062451
 21
308.3674254245891
 31
0.0
  0
LINE
  5
75
330
1F
100
AcDbEntity
  8
NoLayerName_001
  6
Continuous
 62
    60
370
    50
100
AcDbLine
 10
186.234985062451
 20
316.3674254245891
 30
0.0
 11
180.734985062451
 21
316.3674254245891
 31
0.0
  0
LINE
  5
76
330
1F
100
AcDbEntity
  8
NoLayerName_001
  6
Continuous
 62
    60
370
    50
100
AcDbLine
 10
179.734985062451
 20
308.3674254245892
 30
0.0
 11
179.734985062451
 21
310.3674254245892
 31
0.0
  0
LINE
  5
77
330
1F
100
AcDbEntity
  8
NoLayerName_001
  6
Continuous
 62
    60
370
    50
100
AcDbLine
 10
179.734985062451
 20
314.3674254245891
 30
0.0
 11
179.734985062451
 21
316.3674254245892
 31
0.0
  0
LINE
  5
78
330
1F
100
AcDbEntity
  8
NoLayerName_001
  6
Continuous
 62
    60
370
    50
100
AcDbLine
 10
180.734985062451
 20
314.3674254245891
 30
0.0
 11
179.734985062451
 21
314.3674254245891
 31
0.0
  0
LINE
  5
79
330
1F
100
AcDbEntity
  8
NoLayerName_001
  6
Continuous
 62
    60
370
    50
100
AcDbLine
 10
180.734985062451
 20
316.3674254245892
 30
0.0
 11
179.734985062451
 21
316.3674254245892
 31
0.0
  0
LINE
  5
7A
330
1F
100
AcDbEntity
  8
NoLayerName_001
  6
Continuous
 62
    60
370
    50
100
AcDbLine
 10
180.734985062451
 20
310.3674254245891
 30
0.0
 11
179.734985062451
 21
310.3674254245891
 31
0.0
  0
LINE
  5
7B
330
1F
100
AcDbEntity
  8
NoLayerName_001
  6
Continuous
 62
    60
370
    50
100
AcDbLine
 10
180.734985062451
 20
308.3674254245891
 30
0.0
 11
179.734985062451
 21
308.3674254245891
 31
0.0
  0
LINE
  5
7C
330
1F
100
AcDbEntity
  8
NoLayerName_001
  6
Continuous
 62
    60
370
    50
100
AcDbLine
 10
180.734985062451
 20
308.3674254245891
 30
0.0
 11
186.234985062451
 21
308.3674254245891
 31
0.0
  0
LINE
  5
7D
330
1F
100
AcDbEntity
  8
NoLayerName_001
  6
Continuous
 62
    60
370
    50
100
AcDbLine
 10
125.2427727497513
 20
338.9674254245891
 30
0.0
 11
125.2427727497513
 21
339.3674254245891
 31
0.0
  0
LINE
  5
7E
330
1F
100
AcDbEntity
  8
NoLayerName_001
  6
Continuous
 62
    60
370
    50
100
AcDbLine
 10
125.2427727497513
 20
335.7674254245891
 30
0.0
 11
125.2427727497513
 21
335.3674254245891
 31
0.0
  0
LINE
  5
7F
330
1F
100
AcDbEntity
  8
NoLayerName_001
  6
Continuous
 62
    60
370
    50
100
AcDbLine
 10
180.734985062451
 20
308.3674254245891
 30
0.0
 11
181.734985062451
 21
307.3674254245891
 31
0.0
  0
LINE
  5
80
330
1F
100
AcDbEntity
  8
NoLayerName_001
  6
Continuous
 62
    60
370
    50
100
AcDbLine
 10
180.734985062451
 20
358.3674254245891
 30
0.0
 11
186.234985062451
 21
358.3674254245891
 31
0.0
  0
LINE
  5
81
330
1F
100
AcDbEntity
  8
NoLayerName_001
  6
Continuous
 62
    60
370
    50
100
AcDbLine
 10
179.734985062451
 20
366.3674254245891
 30
0.0
 11
179.734985062451
 21
364.3674254245891
 31
0.0
  0
LINE
  5
82
330
1F
100
AcDbEntity
  8
NoLayerName_001
  6
Continuous
 62
    60
370
    50
100
AcDbLine
 10
179.734985062451
 20
360.3674254245891
 30
0.0
 11
179.734985062451
 21
358.367425424589
 31
0.0
  0
LINE
  5
83
330
1F
100
AcDbEntity
  8
NoLayerName_001
  6
Continuous
 62
    60
370
    50
100
AcDbLine
 10
180.734985062451
 20
360.3674254245891
 30
0.0
 11
179.734985062451
 21
360.3674254245891
 31
0.0
  0
LINE
  5
84
330
1F
100
AcDbEntity
  8
NoLayerName_001
  6
Continuous
 62
    60
370
    50
100
AcDbLine
 10
180.734985062451
 20
358.3674254245891
 30
0.0
 11
179.734985062451
 21
358.3674254245891
 31
0.0
  0
LINE
  5
85
330
1F
100
AcDbEntity
  8
NoLayerName_001
  6
Continuous
 62
    60
370
    50
100
AcDbLine
 10
180.734985062451
 20
364.3674254245891
 30
0.0
 11
179.734985062451
 21
364.3674254245891
 31
0.0
  0
LINE
  5
86
330
1F
100
AcDbEntity
  8
NoLayerName_001
  6
Continuous
 62
    60
370
    50
100
AcDbLine
 10
180.734985062451
 20
366.3674254245891
 30
0.0
 11
179.734985062451
 21
366.3674254245891
 31
0.0
  0
LINE
  5
87
330
1F
100
AcDbEntity
  8
NoLayerName_001
  6
Continuous
 62
    60
370
    50
100
AcDbLine
 10
238.734985062451
 20
322.1674254245893
 30
0.0
 11
238.734985062451
 21
345.1674254245893
 31
0.0
  0
LINE
  5
88
330
1F
100
AcDbEntity
  8
NoLayerName_001
  6
Continuous
 62
    60
370
    50
100
AcDbLine
 10
180.734985062451
 20
358.3674254245891
 30
0.0
 11
180.734985062451
 21
366.3674254245891
 31
0.0
  0
LINE
  5
89
330
1F
100
AcDbEntity
  8
NoLayerName_001
  6
Continuous
 62
    60
370
    50
100
AcDbLine
 10
238.734985062451
 20
322.1674254245893
 30
0.0
 11
241.734985062451
 21
322.1674254245893
 31
0.0
  0
LINE
  5
8A
330
1F
100
AcDbEntity
  8
NoLayerName_001
  6
Continuous
 62
    60
370
    50
100
AcDbLine
 10
180.734985062451
 20
366.3674254245891
 30
0.0
 11
186.234985062451
 21
366.3674254245891
 31
0.0
  0
LINE
  5
8B
330
1F
100
AcDbEntity
  8
NoLayerName_001
  6
Continuous
 62
    60
370
    50
100
AcDbLine
 10
238.734985062451
 20
345.1674254245893
 30
0.0
 11
241.734985062451
 21
345.1674254245893
 31
0.0
  0
LINE
  5
8C
330
1F
100
AcDbEntity
  8
NoLayerName_001
  6
Continuous
 62
    60
370
    50
100
AcDbLine
 10
180.734985062451
 20
366.3674254245891
 30
0.0
 11
181.734985062451
 21
367.3674254245891
 31
0.0
  0
LINE
  5
8D
330
1F
100
AcDbEntity
  8
NoLayerName_001
  6
Continuous
 62
    60
370
    50
100
AcDbLine
 10
180.734985062451
 20
316.3674254245891
 30
0.0
 11
180.734985062451
 21
358.3674254245891
 31
0.0
  0
LINE
  5
8E
330
1F
100
AcDbEntity
  8
NoLayerName_005
  6
Continuous
 62
     7
370
    50
100
AcDbLine
 10
204.734985062451
 20
345.8674254245891
 30
0.0
 11
226.7349850624509
 21
345.8674254245891
 31
0.0
  0
LINE
  5
8F
330
1F
100
AcDbEntity
  8
NoLayerName_005
  6
Continuous
 62
   110
370
    50
100
AcDbLine
 10
226.7349850624509
 20
341.3674254245891
 30
0.0
 11
226.7349850624509
 21
345.8674254245891
 31
0.0
  0
ARC
  5
90
330
1F
100
AcDbEntity
  8
NoLayerName_001
  6
Continuous
 62
    60
370
    50
100
AcDbCircle
 10
103.5028314382454
 20
378.8674254245891
 30
0.0
 40
0.5
100
AcDbArc
 50
90.0
 51
270.0
  0
ARC
  5
91
330
1F
100
AcDbEntity
  8
NoLayerName_001
  6
Continuous
 62
    60
370
    50
100
AcDbCircle
 10
103.5028314382454
 20
382.8674254245891
 30
0.0
 40
0.5
100
AcDbArc
 50
90.0
 51
270.0
  0
LINE
  5
92
330
1F
100
AcDbEntity
  8
NoLayerName_001
  6
Continuous
 62
    60
370
    50
100
AcDbLine
 10
125.9427727497513
 20
383.3674254245891
 30
0.0
 11
117.4427727497513
 21
383.3674254245891
 31
0.0
  0
LINE
  5
93
330
1F
100
AcDbEntity
  8
NoLayerName_001
  6
Continuous
 62
    60
370
    50
100
AcDbLine
 10
125.9427727497513
 20
378.3674254245891
 30
0.0
 11
117.4427727497513
 21
378.3674254245891
 31
0.0
  0
LINE
  5
94
330
1F
100
AcDbEntity
  8
NoLayerName_001
  6
Continuous
 62
    60
370
    50
100
AcDbLine
 10
117.4427727497513
 20
382.3674254245891
 30
0.0
 11
125.9427727497513
 21
382.3674254245891
 31
0.0
  0
LINE
  5
95
330
1F
100
AcDbEntity
  8
NoLayerName_001
  6
Continuous
 62
    60
370
    50
100
AcDbLine
 10
117.4427727497513
 20
379.3674254245891
 30
0.0
 11
125.9427727497513
 21
379.3674254245891
 31
0.0
  0
LINE
  5
96
330
1F
100
AcDbEntity
  8
NoLayerName_001
  6
Continuous
 62
    60
370
    50
100
AcDbLine
 10
123.9427727497513
 20
382.3674254245891
 30
0.0
 11
123.9427727497513
 21
379.3674254245891
 31
0.0
  0
LINE
  5
97
330
1F
100
AcDbEntity
  8
NoLayerName_001
  6
Continuous
 62
    60
370
    50
100
AcDbLine
 10
126.9427727497513
 20
379.3674254245891
 30
0.0
 11
126.9427727497513
 21
382.3674254245891
 31
0.0
  0
LINE
  5
98
330
1F
100
AcDbEntity
  8
NoLayerName_001
  6
Continuous
 62
    60
370
    50
100
AcDbLine
 10
125.9427727497513
 20
382.3674254245891
 30
0.0
 11
125.9427727497513
 21
379.3674254245891
 31
0.0
  0
ARC
  5
99
330
1F
100
AcDbEntity
  8
NoLayerName_001
  6
Continuous
 62
    60
370
    50
100
AcDbCircle
 10
125.9427727497513
 20
382.3674254245891
 30
0.0
 40
1.0
100
AcDbArc
 50
0.0
 51
90.0
  0
ARC
  5
9A
330
1F
100
AcDbEntity
  8
NoLayerName_001
  6
Continuous
 62
    60
370
    50
100
AcDbCircle
 10
125.9427727497513
 20
379.3674254245891
 30
0.0
 40
1.0
100
AcDbArc
 50
270.0
 51
0.0
  0
LINE
  5
9B
330
1F
100
AcDbEntity
  8
NoLayerName_001
  6
Continuous
 62
    60
370
    50
100
AcDbLine
 10
132.9427727497513
 20
366.3674254245891
 30
0.0
 11
132.9427727497513
 21
376.8674254245891
 31
0.0
  0
ARC
  5
9C
330
1F
100
AcDbEntity
  8
NoLayerName_005
  6
Continuous
 62
    30
370
    50
100
AcDbCircle
 10
217.3918393119432
 20
375.1174254245891
 30
0.0
 40
1.3
100
AcDbArc
 50
270.0
 51
285.9423686056472
  0
ARC
  5
9D
330
1F
100
AcDbEntity
  8
NoLayerName_005
  6
Continuous
 62
    30
370
    50
100
AcDbCircle
 10
217.3918393119432
 20
375.1174254245891
 30
0.0
 40
1.3
100
AcDbArc
 50
285.9423686056472
 51
314.9999999999996
  0
LINE
  5
9E
330
1F
100
AcDbEntity
  8
NoLayerName_001
  6
Continuous
 62
    60
370
    50
100
AcDbLine
 10
134.9427727497513
 20
358.3674254245891
 30
0.0
 11
138.9427727497513
 21
358.3674254245891
 31
0.0
  0
ARC
  5
9F
330
1F
100
AcDbEntity
  8
NoLayerName_005
  6
Continuous
 62
    30
370
    50
100
AcDbCircle
 10
214.0781308129588
 20
375.1174254245891
 30
0.0
 40
1.3
100
AcDbArc
 50
254.0576313943528
 51
270.0
  0
ARC
  5
A0
330
1F
100
AcDbEntity
  8
NoLayerName_005
  6
Continuous
 62
    30
370
    50
100
AcDbCircle
 10
214.0781308129588
 20
375.1174254245891
 30
0.0
 40
1.3
100
AcDbArc
 50
225.0000000000004
 51
254.0576313943528
  0
LINE
  5
A1
330
1F
100
AcDbEntity
  8
NoLayerName_001
  6
Continuous
 62
    60
370
    50
100
AcDbLine
 10
189.734985062451
 20
300.8674254245892
 30
0.0
 11
189.734985062451
 21
332.3674254245892
 31
0.0
  0
LINE
  5
A2
330
1F
100
AcDbEntity
  8
NoLayerName_001
  6
Continuous
 62
    60
370
    50
100
AcDbLine
 10
138.9427727497513
 20
367.3674254245891
 30
0.0
 11
104.9427727497513
 21
367.3674254245891
 31
0.0
  0
LINE
  5
A3
330
1F
100
AcDbEntity
  8
NoLayerName_005
  6
Continuous
 62
    30
370
    50
100
AcDbLine
 10
217.3918393119432
 20
374.1174254245891
 30
0.0
 11
214.0781308129588
 21
374.1174254245891
 31
0.0
  0
LINE
  5
A4
330
1F
100
AcDbEntity
  8
NoLayerName_005
  6
Continuous
 62
    30
370
    50
100
AcDbLine
 10
218.0989460931297
 20
374.4103186434025
 30
0.0
 11
220.4420918436375
 21
376.7534643939103
 31
0.0
  0
LINE
  5
A5
330
1F
100
AcDbEntity
  8
NoLayerName_005
  6
Continuous
 62
    30
370
    50
100
AcDbLine
 10
211.0278782812644
 20
376.7534643939103
 30
0.0
 11
213.3710240317722
 21
374.4103186434025
 31
0.0
  0
ARC
  5
A6
330
1F
100
AcDbEntity
  8
NoLayerName_005
  6
Continuous
 62
    30
370
    50
100
AcDbCircle
 10
219.734985062451
 20
377.4605711750969
 30
0.0
 40
1.0
100
AcDbArc
 50
315.0
 51
0.0
  0
ARC
  5
A7
330
1F
100
AcDbEntity
  8
NoLayerName_005
  6
Continuous
 62
    30
370
    50
100
AcDbCircle
 10
211.734985062451
 20
377.4605711750969
 30
0.0
 40
1.0
100
AcDbArc
 50
180.0
 51
225.0
  0
ARC
  5
A8
330
1F
100
AcDbEntity
  8
NoLayerName_005
  6
Continuous
 62
    30
370
    50
100
AcDbCircle
 10
214.0781308129588
 20
375.1174254245891
 30
0.0
 40
1.0
100
AcDbArc
 50
225.0
 51
270.0
  0
ARC
  5
A9
330
1F
100
AcDbEntity
  8
NoLayerName_005
  6
Continuous
 62
    30
370
    50
100
AcDbCircle
 10
217.3918393119432
 20
375.1174254245891
 30
0.0
 40
1.0
100
AcDbArc
 50
270.0
 51
315.0
  0
LINE
  5
AA
330
1F
100
AcDbEntity
  8
NoLayerName_005
  6
Continuous
 62
    30
370
    50
100
AcDbLine
 10
216.734985062451
 20
373.8174254245891
 30
0.0
 11
217.3918393119432
 21
373.8174254245891
 31
0.0
  0
LINE
  5
AB
330
1F
100
AcDbEntity
  8
NoLayerName_005
  6
Continuous
 62
    30
370
    50
100
AcDbLine
 10
218.734985062451
 20
374.6220935440118
 30
0.0
 11
218.3110781274856
 21
374.1981866090465
 31
0.0
  0
LINE
  5
AC
330
1F
100
AcDbEntity
  8
NoLayerName_005
  6
Continuous
 62
    30
370
    50
100
AcDbLine
 10
214.734985062451
 20
373.8174254245891
 30
0.0
 11
214.0781308129588
 21
373.8174254245891
 31
0.0
  0
LINE
  5
AD
330
1F
100
AcDbEntity
  8
NoLayerName_005
  6
Continuous
 62
    30
370
    50
100
AcDbLine
 10
212.734985062451
 20
374.6220935440118
 30
0.0
 11
213.1588919974163
 21
374.1981866090465
 31
0.0
  0
LINE
  5
AE
330
1F
100
AcDbEntity
  8
NoLayerName_005
  6
Continuous
 62
    30
370
    50
100
AcDbLine
 10
212.734985062451
 20
375.0463576127239
 30
0.0
 11
212.734985062451
 21
374.6220935440119
 31
0.0
  0
LINE
  5
AF
330
1F
100
AcDbEntity
  8
NoLayerName_005
  6
DOTSX
 62
     7
370
    25
100
AcDbLine
 10
214.734985062451
 20
374.1174254245891
 30
0.0
 11
214.734985062451
 21
375.3674254245891
 31
0.0
  0
LINE
  5
B0
330
1F
100
AcDbEntity
  8
NoLayerName_005
  6
DOTSX
 62
     7
370
    25
100
AcDbLine
 10
216.734985062451
 20
374.1174254245891
 30
0.0
 11
216.734985062451
 21
375.3674254245891
 31
0.0
  0
LINE
  5
B1
330
1F
100
AcDbEntity
  8
NoLayerName_005
  6
Continuous
 62
    30
370
    50
100
AcDbLine
 10
218.734985062451
 20
375.0463576127238
 30
0.0
 11
218.734985062451
 21
374.6220935440119
 31
0.0
  0
ARC
  5
B2
330
1F
100
AcDbEntity
  8
NoLayerName_005
  6
Continuous
 62
    60
370
    50
100
AcDbCircle
 10
209.4349850624509
 20
378.1674254245893
 30
0.0
 40
0.3
100
AcDbArc
 50
270.0
 51
0.0
  0
LINE
  5
B3
330
1F
100
AcDbEntity
  8
NoLayerName_005
  6
Continuous
 62
    60
370
    50
100
AcDbLine
 10
209.734985062451
 20
378.1674254245893
 30
0.0
 11
209.734985062451
 21
385.3674254245892
 31
0.0
  0
CIRCLE
  5
B4
330
1F
100
AcDbEntity
  8
NoLayerName_005
  6
Continuous
 62
    30
370
    50
100
AcDbCircle
 10
215.734985062451
 20
379.1174254245892
 30
0.0
 40
2.25
  0
ARC
  5
B5
330
1F
100
AcDbEntity
  8
NoLayerName_005
  6
Continuous
 62
    30
370
    50
100
AcDbCircle
 10
215.734985062451
 20
379.1174254245892
 30
0.0
 40
5.0
100
AcDbArc
 50
360.0
 51
180.0
  0
LINE
  5
B6
330
1F
100
AcDbEntity
  8
NoLayerName_005
  6
Continuous
 62
    30
370
    50
100
AcDbLine
 10
210.734985062451
 20
377.4605711750969
 30
0.0
 11
210.734985062451
 21
385.3674254245892
 31
0.0
  0
LINE
  5
B7
330
1F
100
AcDbEntity
  8
NoLayerName_005
  6
Continuous
 62
    30
370
    50
100
AcDbLine
 10
220.734985062451
 20
377.4605711750969
 30
0.0
 11
220.734985062451
 21
385.3674254245892
 31
0.0
  0
LINE
  5
B8
330
1F
100
AcDbEntity
  8
NoLayerName_001
  6
Continuous
 62
    60
370
    50
100
AcDbLine
 10
102.9427727497513
 20
337.3674254245891
 30
0.0
 11
102.9427727497513
 21
385.867425424589
 31
0.0
  0
ARC
  5
B9
330
1F
100
AcDbEntity
  8
NoLayerName_001
  6
Continuous
 62
    60
370
    50
100
AcDbCircle
 10
103.5028314382454
 20
295.8674254245891
 30
0.0
 40
0.5
100
AcDbArc
 50
90.0
 51
270.0
  0
ARC
  5
BA
330
1F
100
AcDbEntity
  8
NoLayerName_001
  6
Continuous
 62
    60
370
    50
100
AcDbCircle
 10
103.5028314382454
 20
291.8674254245891
 30
0.0
 40
0.5
100
AcDbArc
 50
90.0
 51
270.0
  0
LINE
  5
BB
330
1F
100
AcDbEntity
  8
NoLayerName_001
  6
Continuous
 62
    60
370
    50
100
AcDbLine
 10
125.9427727497513
 20
291.3674254245891
 30
0.0
 11
117.4427727497513
 21
291.3674254245891
 31
0.0
  0
LINE
  5
BC
330
1F
100
AcDbEntity
  8
NoLayerName_001
  6
Continuous
 62
    60
370
    50
100
AcDbLine
 10
125.9427727497513
 20
296.3674254245891
 30
0.0
 11
117.4427727497513
 21
296.3674254245891
 31
0.0
  0
LINE
  5
BD
330
1F
100
AcDbEntity
  8
NoLayerName_001
  6
Continuous
 62
    60
370
    50
100
AcDbLine
 10
117.4427727497513
 20
292.3674254245891
 30
0.0
 11
125.9427727497513
 21
292.3674254245891
 31
0.0
  0
LINE
  5
BE
330
1F
100
AcDbEntity
  8
NoLayerName_001
  6
Continuous
 62
    60
370
    50
100
AcDbLine
 10
117.4427727497513
 20
295.3674254245891
 30
0.0
 11
125.9427727497513
 21
295.3674254245891
 31
0.0
  0
LINE
  5
BF
330
1F
100
AcDbEntity
  8
NoLayerName_001
  6
Continuous
 62
    60
370
    50
100
AcDbLine
 10
123.9427727497513
 20
292.3674254245891
 30
0.0
 11
123.9427727497513
 21
295.3674254245891
 31
0.0
  0
LINE
  5
C0
330
1F
100
AcDbEntity
  8
NoLayerName_001
  6
Continuous
 62
    60
370
    50
100
AcDbLine
 10
126.9427727497513
 20
295.3674254245891
 30
0.0
 11
126.9427727497513
 21
292.3674254245891
 31
0.0
  0
LINE
  5
C1
330
1F
100
AcDbEntity
  8
NoLayerName_001
  6
Continuous
 62
    60
370
    50
100
AcDbLine
 10
125.9427727497513
 20
292.3674254245891
 30
0.0
 11
125.9427727497513
 21
295.3674254245891
 31
0.0
  0
ARC
  5
C2
330
1F
100
AcDbEntity
  8
NoLayerName_001
  6
Continuous
 62
    60
370
    50
100
AcDbCircle
 10
125.9427727497513
 20
292.3674254245891
 30
0.0
 40
1.0
100
AcDbArc
 50
270.0
 51
0.0
  0
ARC
  5
C3
330
1F
100
AcDbEntity
  8
NoLayerName_001
  6
Continuous
 62
    60
370
    50
100
AcDbCircle
 10
125.9427727497513
 20
295.3674254245891
 30
0.0
 40
1.0
100
AcDbArc
 50
0.0
 51
90.0
  0
LINE
  5
C4
330
1F
100
AcDbEntity
  8
NoLayerName_001
  6
Continuous
 62
    60
370
    50
100
AcDbLine
 10
132.9427727497513
 20
308.3674254245891
 30
0.0
 11
132.9427727497513
 21
297.8674254245891
 31
0.0
  0
LINE
  5
C5
330
1F
100
AcDbEntity
  8
NoLayerName_001
  6
Continuous
 62
    60
370
    50
100
AcDbLine
 10
134.9427727497513
 20
316.3674254245891
 30
0.0
 11
138.9427727497513
 21
316.3674254245891
 31
0.0
  0
LINE
  5
C6
330
1F
100
AcDbEntity
  8
NoLayerName_001
  6
Continuous
 62
    60
370
    50
100
AcDbLine
 10
138.9427727497513
 20
307.3674254245891
 30
0.0
 11
104.9427727497513
 21
307.3674254245891
 31
0.0
  0
LINE
  5
C7
330
1F
100
AcDbEntity
  8
NoLayerName_001
  6
Continuous
 62
    60
370
    50
100
AcDbLine
 10
102.9427727497513
 20
337.3674254245891
 30
0.0
 11
102.9427727497513
 21
288.8674254245892
 31
0.0
  0
LINE
  5
C8
330
1F
100
AcDbEntity
  8
NoLayerName_001
  6
Continuous
 62
    60
370
    50
100
AcDbLine
 10
128.9427727497513
 20
314.0674254245891
 30
0.0
 11
128.9427727497513
 21
314.3674254245892
 31
0.0
  0
LINE
  5
C9
330
1F
100
AcDbEntity
  8
NoLayerName_001
  6
Continuous
 62
    60
370
    50
100
AcDbLine
 10
128.9427727497513
 20
314.0674254245891
 30
0.0
 11
125.2427727497513
 21
314.0674254245891
 31
0.0
  0
LINE
  5
CA
330
1F
100
AcDbEntity
  8
NoLayerName_001
  6
Continuous
 62
    60
370
    50
100
AcDbLine
 10
125.2427727497513
 20
313.9674254245891
 30
0.0
 11
128.4427727497513
 21
313.9674254245891
 31
0.0
  0
LINE
  5
CB
330
1F
100
AcDbEntity
  8
NoLayerName_001
  6
Continuous
 62
    60
370
    50
100
AcDbLine
 10
125.2427727497513
 20
313.9674254245891
 30
0.0
 11
125.2427727497513
 21
314.3674254245891
 31
0.0
  0
LINE
  5
CC
330
1F
100
AcDbEntity
  8
NoLayerName_001
  6
Continuous
 62
    60
370
    50
100
AcDbLine
 10
127.4427727497513
 20
313.9674254245891
 30
0.0
 11
127.4427727497513
 21
314.0674254245891
 31
0.0
  0
LINE
  5
CD
330
1F
100
AcDbEntity
  8
NoLayerName_001
  6
Continuous
 62
    60
370
    50
100
AcDbLine
 10
128.4427727497513
 20
313.9674254245891
 30
0.0
 11
128.4427727497513
 21
314.0674254245891
 31
0.0
  0
LINE
  5
CE
330
1F
100
AcDbEntity
  8
NoLayerName_001
  6
Continuous
 62
    60
370
    50
100
AcDbLine
 10
128.9427727497513
 20
310.6674254245891
 30
0.0
 11
128.9427727497513
 21
310.367425424589
 31
0.0
  0
LINE
  5
CF
330
1F
100
AcDbEntity
  8
NoLayerName_001
  6
Continuous
 62
    60
370
    50
100
AcDbLine
 10
128.9427727497513
 20
310.6674254245891
 30
0.0
 11
125.2427727497513
 21
310.6674254245891
 31
0.0
  0
LINE
  5
D0
330
1F
100
AcDbEntity
  8
NoLayerName_001
  6
Continuous
 62
    60
370
    50
100
AcDbLine
 10
125.2427727497513
 20
310.7674254245892
 30
0.0
 11
128.4427727497513
 21
310.7674254245892
 31
0.0
  0
LINE
  5
D1
330
1F
100
AcDbEntity
  8
NoLayerName_001
  6
Continuous
 62
    60
370
    50
100
AcDbLine
 10
125.2427727497513
 20
310.7674254245892
 30
0.0
 11
125.2427727497513
 21
310.3674254245892
 31
0.0
  0
LINE
  5
D2
330
1F
100
AcDbEntity
  8
NoLayerName_001
  6
Continuous
 62
    60
370
    50
100
AcDbLine
 10
127.4427727497513
 20
310.7674254245892
 30
0.0
 11
127.4427727497513
 21
310.6674254245892
 31
0.0
  0
LINE
  5
D3
330
1F
100
AcDbEntity
  8
NoLayerName_001
  6
Continuous
 62
    60
370
    50
100
AcDbLine
 10
128.4427727497513
 20
310.7674254245892
 30
0.0
 11
128.4427727497513
 21
310.6674254245892
 31
0.0
  0
ARC
  5
D4
330
1F
100
AcDbEntity
  8
NoLayerName_001
  6
Continuous
 62
    30
370
    50
100
AcDbCircle
 10
128.9427727497513
 20
312.3674254245891
 30
0.0
 40
2.0
100
AcDbArc
 50
270.0
 51
90.0
  0
LINE
  5
D5
330
1F
100
AcDbEntity
  8
NoLayerName_001
  6
Continuous
 62
    60
370
    50
100
AcDbLine
 10
135.9427727497513
 20
310.3674254245891
 30
0.0
 11
102.9427727497513
 21
310.3674254245891
 31
0.0
  0
LINE
  5
D6
330
1F
100
AcDbEntity
  8
NoLayerName_001
  6
Continuous
 62
    60
370
    50
100
AcDbLine
 10
135.9427727497513
 20
314.3674254245891
 30
0.0
 11
102.9427727497513
 21
314.3674254245891
 31
0.0
  0
LINE
  5
D7
330
1F
100
AcDbEntity
  8
NoLayerName_001
  6
Continuous
 62
    60
370
    50
100
AcDbLine
 10
138.9427727497513
 20
300.8674254245892
 30
0.0
 11
135.9427727497513
 21
300.8674254245892
 31
0.0
  0
LINE
  5
D8
330
1F
100
AcDbEntity
  8
NoLayerName_001
  6
Continuous
 62
    60
370
    50
100
AcDbLine
 10
132.9427727497513
 20
300.8674254245892
 30
0.0
 11
102.9427727497513
 21
300.8674254245892
 31
0.0
  0
LINE
  5
D9
330
1F
100
AcDbEntity
  8
NoLayerName_001
  6
Continuous
 62
    60
370
    50
100
AcDbLine
 10
132.9427727497513
 20
333.3674254245891
 30
0.0
 11
132.9427727497513
 21
316.3674254245892
 31
0.0
  0
LINE
  5
DA
330
1F
100
AcDbEntity
  8
NoLayerName_001
  6
Continuous
 62
    60
370
    50
100
AcDbLine
 10
138.9427727497513
 20
317.3674254245891
 30
0.0
 11
135.9427727497513
 21
317.3674254245891
 31
0.0
  0
LINE
  5
DB
330
1F
100
AcDbEntity
  8
NoLayerName_001
  6
Continuous
 62
    60
370
    50
100
AcDbLine
 10
105.9427727497512
 20
310.3674254245891
 30
0.0
 11
105.9427727497512
 21
308.3674254245891
 31
0.0
  0
LINE
  5
DC
330
1F
100
AcDbEntity
  8
NoLayerName_001
  6
Continuous
 62
    60
370
    50
100
AcDbLine
 10
105.4427727497512
 20
310.3674254245891
 30
0.0
 11
105.4427727497512
 21
308.3674254245891
 31
0.0
  0
LINE
  5
DD
330
1F
100
AcDbEntity
  8
NoLayerName_001
  6
Continuous
 62
    60
370
    50
100
AcDbLine
 10
105.9427727497512
 20
314.3674254245891
 30
0.0
 11
105.9427727497512
 21
316.3674254245891
 31
0.0
  0
LINE
  5
DE
330
1F
100
AcDbEntity
  8
NoLayerName_001
  6
Continuous
 62
    60
370
    50
100
AcDbLine
 10
105.4427727497512
 20
314.3674254245891
 30
0.0
 11
105.4427727497512
 21
316.3674254245891
 31
0.0
  0
LINE
  5
DF
330
1F
100
AcDbEntity
  8
NoLayerName_001
  6
Continuous
 62
    60
370
    50
100
AcDbLine
 10
135.9427727497513
 20
333.3674254245891
 30
0.0
 11
135.9427727497513
 21
316.3674254245892
 31
0.0
  0
LINE
  5
E0
330
1F
100
AcDbEntity
  8
NoLayerName_001
  6
Continuous
 62
    60
370
    50
100
AcDbLine
 10
105.4427727497512
 20
310.3674254245891
 30
0.0
 11
105.4427727497512
 21
314.3674254245891
 31
0.0
  0
LINE
  5
E1
330
1F
100
AcDbEntity
  8
NoLayerName_001
  6
Continuous
 62
    60
370
    50
100
AcDbLine
 10
135.9427727497513
 20
308.3674254245891
 30
0.0
 11
135.9427727497513
 21
297.8674254245891
 31
0.0
  0
LINE
  5
E2
330
1F
100
AcDbEntity
  8
NoLayerName_001
  6
Continuous
 62
    60
370
    50
100
AcDbLine
 10
138.9427727497513
 20
335.3674254245891
 30
0.0
 11
138.9427727497513
 21
286.8674254245892
 31
0.0
  0
LINE
  5
E3
330
1F
100
AcDbEntity
  8
NoLayerName_001
  6
Continuous
 62
    60
370
    50
100
AcDbLine
 10
135.9427727497513
 20
314.3674254245891
 30
0.0
 11
135.9427727497513
 21
310.3674254245891
 31
0.0
  0
LINE
  5
E4
330
1F
100
AcDbEntity
  8
NoLayerName_001
  6
Continuous
 62
    60
370
    50
100
AcDbLine
 10
135.9427727497513
 20
310.3674254245891
 30
0.0
 11
135.9427727497513
 21
308.3674254245891
 31
0.0
  0
LINE
  5
E5
330
1F
100
AcDbEntity
  8
NoLayerName_001
  6
Continuous
 62
    60
370
    50
100
AcDbLine
 10
135.4427727497513
 20
310.3674254245891
 30
0.0
 11
135.4427727497513
 21
308.3674254245891
 31
0.0
  0
LINE
  5
E6
330
1F
100
AcDbEntity
  8
NoLayerName_001
  6
Continuous
 62
    60
370
    50
100
AcDbLine
 10
134.9427727497513
 20
310.3674254245891
 30
0.0
 11
134.9427727497513
 21
308.3674254245891
 31
0.0
  0
LINE
  5
E7
330
1F
100
AcDbEntity
  8
NoLayerName_001
  6
Continuous
 62
    60
370
    50
100
AcDbLine
 10
135.9427727497513
 20
314.3674254245891
 30
0.0
 11
135.9427727497513
 21
316.3674254245891
 31
0.0
  0
LINE
  5
E8
330
1F
100
AcDbEntity
  8
NoLayerName_005
  6
Continuous
 62
    30
370
    50
100
AcDbLine
 10
236.234985062451
 20
368.8674254245892
 30
0.0
 11
236.234985062451
 21
341.3674254245892
 31
0.0
  0
ARC
  5
E9
330
1F
100
AcDbEntity
  8
NoLayerName_005
  6
Continuous
 62
    30
370
    50
100
AcDbCircle
 10
234.234985062451
 20
341.3674254245891
 30
0.0
 40
2.0
100
AcDbArc
 50
113.5781784782019
 51
0.0
  0
LINE
  5
EA
330
1F
100
AcDbEntity
  8
NoLayerName_005
  6
Continuous
 62
    30
370
    50
100
AcDbLine
 10
236.234985062451
 20
305.8674254245891
 30
0.0
 11
236.234985062451
 21
333.3674254245891
 31
0.0
  0
ARC
  5
EB
330
1F
100
AcDbEntity
  8
NoLayerName_005
  6
Continuous
 62
    30
370
    50
100
AcDbCircle
 10
234.234985062451
 20
333.3674254245891
 30
0.0
 40
2.0
100
AcDbArc
 50
360.0
 51
246.4218215217981
  0
LINE
  5
EC
330
1F
100
AcDbEntity
  8
NoLayerName_005
  6
Continuous
 62
    30
370
    50
100
AcDbLine
 10
195.234985062451
 20
331.3674254245891
 30
0.0
 11
195.234985062451
 21
305.7706512310403
 31
0.0
  0
LINE
  5
ED
330
1F
100
AcDbEntity
  8
NoLayerName_001
  6
Continuous
 62
    60
370
    50
100
AcDbLine
 10
135.4427727497513
 20
314.3674254245891
 30
0.0
 11
135.4427727497513
 21
316.3674254245891
 31
0.0
  0
LINE
  5
EE
330
1F
100
AcDbEntity
  8
NoLayerName_001
  6
Continuous
 62
    60
370
    50
100
AcDbLine
 10
134.9427727497513
 20
314.3674254245891
 30
0.0
 11
134.9427727497513
 21
316.3674254245891
 31
0.0
  0
ARC
  5
EF
330
1F
100
AcDbEntity
  8
NoLayerName_001
  6
Continuous
 62
    60
370
    50
100
AcDbCircle
 10
104.9427727497512
 20
288.8674254245891
 30
0.0
 40
2.0
100
AcDbArc
 50
180.0
 51
270.0
  0
ARC
  5
F0
330
1F
100
AcDbEntity
  8
NoLayerName_005
  6
Continuous
 62
    30
370
    50
100
AcDbCircle
 10
197.234985062451
 20
331.3674254245891
 30
0.0
 40
2.0
100
AcDbArc
 50
293.5781784782019
 51
180.0
  0
ARC
  5
F1
330
1F
100
AcDbEntity
  8
NoLayerName_005
  6
Continuous
 62
    30
370
    50
100
AcDbCircle
 10
232.234985062451
 20
305.8674254245891
 30
0.0
 40
4.0
100
AcDbArc
 50
270.0
 51
0.0
  0
ARC
  5
F2
330
1F
100
AcDbEntity
  8
NoLayerName_005
  6
Continuous
 62
    30
370
    50
100
AcDbCircle
 10
199.234985062451
 20
305.8674254245891
 30
0.0
 40
4.0
100
AcDbArc
 50
180.0
 51
270.0
  0
LINE
  5
F3
330
1F
100
AcDbEntity
  8
NoLayerName_005
  6
Continuous
 62
    30
370
    50
100
AcDbLine
 10
195.234985062451
 20
343.3674254245891
 30
0.0
 11
195.234985062451
 21
368.9641996181379
 31
0.0
  0
ARC
  5
F4
330
1F
100
AcDbEntity
  8
NoLayerName_005
  6
Continuous
 62
    30
370
    50
100
AcDbCircle
 10
197.234985062451
 20
343.3674254245891
 30
0.0
 40
2.0
100
AcDbArc
 50
180.0
 51
66.42182152179818
  0
ARC
  5
F5
330
1F
100
AcDbEntity
  8
NoLayerName_005
  6
Continuous
 62
    30
370
    50
100
AcDbCircle
 10
232.234985062451
 20
368.8674254245892
 30
0.0
 40
4.0
100
AcDbArc
 50
0.0
 51
90.0
  0
ARC
  5
F6
330
1F
100
AcDbEntity
  8
NoLayerName_005
  6
Continuous
 62
    30
370
    50
100
AcDbCircle
 10
199.234985062451
 20
368.8674254245892
 30
0.0
 40
4.0
100
AcDbArc
 50
90.0
 51
180.0
  0
LINE
  5
F7
330
1F
100
AcDbEntity
  8
NoLayerName_005
  6
Continuous
 62
    30
370
    50
100
AcDbLine
 10
220.734985062451
 20
372.8674254245892
 30
0.0
 11
232.234985062451
 21
372.8674254245892
 31
0.0
  0
ARC
  5
F8
330
1F
100
AcDbEntity
  8
NoLayerName_005
  6
Continuous
 62
    30
370
    50
100
AcDbCircle
 10
220.734985062451
 20
370.8674254245892
 30
0.0
 40
2.0
100
AcDbArc
 50
90.0
 51
336.4218215217981
  0
LINE
  5
F9
330
1F
100
AcDbEntity
  8
NoLayerName_005
  6
Continuous
 62
    30
370
    50
100
AcDbLine
 10
210.734985062451
 20
372.8674254245892
 30
0.0
 11
199.234985062451
 21
372.8674254245892
 31
0.0
  0
ARC
  5
FA
330
1F
100
AcDbEntity
  8
NoLayerName_005
  6
Continuous
 62
    30
370
    50
100
AcDbCircle
 10
210.734985062451
 20
370.8674254245892
 30
0.0
 40
2.0
100
AcDbArc
 50
203.5781784782019
 51
90.0
  0
LINE
  5
FB
330
1F
100
AcDbEntity
  8
NoLayerName_001
  6
Continuous
 62
    60
370
    50
100
AcDbLine
 10
138.9427727497513
 20
308.3674254245891
 30
0.0
 11
104.9427727497513
 21
308.3674254245891
 31
0.0
  0
LINE
  5
FC
330
1F
100
AcDbEntity
  8
NoLayerName_001
  6
Continuous
 62
    60
370
    50
100
AcDbLine
 10
104.9427727497512
 20
307.3674254245891
 30
0.0
 11
104.9427727497512
 21
310.3674254245891
 31
0.0
  0
LINE
  5
FD
330
1F
100
AcDbEntity
  8
NoLayerName_001
  6
Continuous
 62
    60
370
    50
100
AcDbLine
 10
104.9427727497512
 20
314.3674254245891
 30
0.0
 11
104.9427727497512
 21
317.3674254245891
 31
0.0
  0
LINE
  5
FE
330
1F
100
AcDbEntity
  8
NoLayerName_001
  6
Continuous
 62
    60
370
    50
100
AcDbLine
 10
104.9427727497512
 20
286.8674254245891
 30
0.0
 11
138.9427727497512
 21
286.8674254245891
 31
0.0
  0
LINE
  5
FF
330
1F
100
AcDbEntity
  8
NoLayerName_005
  6
Continuous
 62
    30
370
    50
100
AcDbLine
 10
223.0262729099289
 20
370.3674254245892
 30
0.0
 11
231.734985062451
 21
370.3674254245892
 31
0.0
  0
LINE
  5
100
330
1F
100
AcDbEntity
  8
NoLayerName_006
  6
Continuous
 62
    60
370
    50
100
AcDbLine
 10
211.9933276756771
 20
364.3674254245892
 30
0.0
 11
219.4766424492249
 21
364.3674254245892
 31
0.0
  0
LINE
  5
101
330
1F
100
AcDbEntity
  8
NoLayerName_005
  6
Continuous
 62
    30
370
    50
100
AcDbLine
 10
233.734985062451
 20
343.6587132720671
 30
0.0
 11
233.734985062451
 21
368.3674254245892
 31
0.0
  0
ARC
  5
102
330
1F
100
AcDbEntity
  8
NoLayerName_006
  6
Continuous
 62
    60
370
    50
100
AcDbCircle
 10
215.734985062451
 20
357.3674254245891
 30
0.0
 40
8.0
100
AcDbArc
 50
37.12912064202884
 51
60.07356513338581
  0
ARC
  5
103
330
1F
100
AcDbEntity
  8
NoLayerName_006
  6
Continuous
 62
    60
370
    50
100
AcDbCircle
 10
215.734985062451
 20
357.3674254245891
 30
0.0
 40
8.0
100
AcDbArc
 50
119.9264348666142
 51
142.6619878257083
  0
ARC
  5
104
330
1F
100
AcDbEntity
  8
NoLayerName_005
  6
Continuous
 62
    30
370
    50
100
AcDbCircle
 10
231.734985062451
 20
368.3674254245892
 30
0.0
 40
2.0
100
AcDbArc
 50
360.0
 51
90.0
  0
ARC
  5
105
330
1F
100
AcDbEntity
  8
NoLayerName_005
  6
Continuous
 62
    30
370
    50
100
AcDbCircle
 10
223.0262729099289
 20
369.8674254245892
 30
0.0
 40
0.5
100
AcDbArc
 50
90.0
 51
156.4218215217981
  0
ARC
  5
106
330
1F
100
AcDbEntity
  8
NoLayerName_005
  6
Continuous
 62
    30
370
    50
100
AcDbCircle
 10
233.234985062451
 20
343.6587132720671
 30
0.0
 40
0.5
100
AcDbArc
 50
293.5781784782019
 51
0.0
  0
LINE
  5
107
330
1F
100
AcDbEntity
  8
NoLayerName_005
  6
Continuous
 62
    30
370
    50
100
AcDbLine
 10
197.734985062451
 20
345.6587132720671
 30
0.0
 11
197.734985062451
 21
368.3674254245892
 31
0.0
  0
ARC
  5
108
330
1F
100
AcDbEntity
  8
NoLayerName_006
  6
Continuous
 62
    60
370
    50
100
AcDbCircle
 10
219.4766424492249
 20
363.8674254245892
 30
0.0
 40
0.5
100
AcDbArc
 50
60.07356513338577
 51
90.0
  0
ARC
  5
109
330
1F
100
AcDbEntity
  8
NoLayerName_006
  6
Continuous
 62
    60
370
    50
100
AcDbCircle
 10
211.9933276756771
 20
363.8674254245892
 30
0.0
 40
0.5
100
AcDbArc
 50
90.0
 51
119.9264348666142
  0
ARC
  5
10A
330
1F
100
AcDbEntity
  8
NoLayerName_006
  6
Continuous
 62
    60
370
    50
100
AcDbCircle
 10
208.2516702889031
 20
357.8674254245891
 30
0.0
 40
0.5
100
AcDbArc
 50
176.1774462707257
 51
270.0
  0
ARC
  5
10B
330
1F
100
AcDbEntity
  8
NoLayerName_006
  6
Continuous
 62
    60
370
    50
100
AcDbCircle
 10
223.2182998359988
 20
357.8674254245891
 30
0.0
 40
0.5
100
AcDbArc
 50
270.0
 51
3.822553729274341
  0
LINE
  5
10C
330
1F
100
AcDbEntity
  8
NoLayerName_001
  6
Continuous
 62
    60
370
    50
100
AcDbLine
 10
128.9427727497513
 20
360.6674254245891
 30
0.0
 11
128.9427727497513
 21
360.367425424589
 31
0.0
  0
LINE
  5
10D
330
1F
100
AcDbEntity
  8
NoLayerName_001
  6
Continuous
 62
    60
370
    50
100
AcDbLine
 10
128.9427727497513
 20
360.6674254245891
 30
0.0
 11
125.2427727497513
 21
360.6674254245891
 31
0.0
  0
LINE
  5
10E
330
1F
100
AcDbEntity
  8
NoLayerName_001
  6
Continuous
 62
    60
370
    50
100
AcDbLine
 10
125.2427727497513
 20
360.7674254245892
 30
0.0
 11
128.4427727497513
 21
360.7674254245892
 31
0.0
  0
LINE
  5
10F
330
1F
100
AcDbEntity
  8
NoLayerName_001
  6
Continuous
 62
    60
370
    50
100
AcDbLine
 10
125.2427727497513
 20
360.7674254245892
 30
0.0
 11
125.2427727497513
 21
360.3674254245892
 31
0.0
  0
LINE
  5
110
330
1F
100
AcDbEntity
  8
NoLayerName_001
  6
Continuous
 62
    60
370
    50
100
AcDbLine
 10
127.4427727497513
 20
360.7674254245892
 30
0.0
 11
127.4427727497513
 21
360.6674254245892
 31
0.0
  0
LINE
  5
111
330
1F
100
AcDbEntity
  8
NoLayerName_001
  6
Continuous
 62
    60
370
    50
100
AcDbLine
 10
128.4427727497513
 20
360.7674254245892
 30
0.0
 11
128.4427727497513
 21
360.6674254245892
 31
0.0
  0
LINE
  5
112
330
1F
100
AcDbEntity
  8
NoLayerName_001
  6
Continuous
 62
    60
370
    50
100
AcDbLine
 10
128.9427727497513
 20
364.0674254245891
 30
0.0
 11
128.9427727497513
 21
364.3674254245892
 31
0.0
  0
LINE
  5
113
330
1F
100
AcDbEntity
  8
NoLayerName_001
  6
Continuous
 62
    60
370
    50
100
AcDbLine
 10
128.9427727497513
 20
364.0674254245891
 30
0.0
 11
125.2427727497513
 21
364.0674254245891
 31
0.0
  0
LINE
  5
114
330
1F
100
AcDbEntity
  8
NoLayerName_001
  6
Continuous
 62
    60
370
    50
100
AcDbLine
 10
125.2427727497513
 20
363.9674254245891
 30
0.0
 11
128.4427727497513
 21
363.9674254245891
 31
0.0
  0
LINE
  5
115
330
1F
100
AcDbEntity
  8
NoLayerName_001
  6
Continuous
 62
    60
370
    50
100
AcDbLine
 10
125.2427727497513
 20
363.9674254245891
 30
0.0
 11
125.2427727497513
 21
364.3674254245891
 31
0.0
  0
LINE
  5
116
330
1F
100
AcDbEntity
  8
NoLayerName_001
  6
Continuous
 62
    60
370
    50
100
AcDbLine
 10
127.4427727497513
 20
363.9674254245891
 30
0.0
 11
127.4427727497513
 21
364.0674254245891
 31
0.0
  0
LINE
  5
117
330
1F
100
AcDbEntity
  8
NoLayerName_001
  6
Continuous
 62
    60
370
    50
100
AcDbLine
 10
128.4427727497513
 20
363.9674254245891
 30
0.0
 11
128.4427727497513
 21
364.0674254245891
 31
0.0
  0
ARC
  5
118
330
1F
100
AcDbEntity
  8
NoLayerName_001
  6
Continuous
 62
    30
370
    50
100
AcDbCircle
 10
128.9427727497513
 20
362.3674254245891
 30
0.0
 40
2.0
100
AcDbArc
 50
270.0
 51
90.0
  0
LINE
  5
119
330
1F
100
AcDbEntity
  8
NoLayerName_001
  6
Continuous
 62
    60
370
    50
100
AcDbLine
 10
135.9427727497513
 20
364.3674254245891
 30
0.0
 11
102.9427727497513
 21
364.3674254245891
 31
0.0
  0
LINE
  5
11A
330
1F
100
AcDbEntity
  8
NoLayerName_001
  6
Continuous
 62
    60
370
    50
100
AcDbLine
 10
135.9427727497513
 20
360.3674254245891
 30
0.0
 11
102.9427727497513
 21
360.3674254245891
 31
0.0
  0
LINE
  5
11B
330
1F
100
AcDbEntity
  8
NoLayerName_005
  6
Continuous
 62
    30
370
    50
100
AcDbLine
 10
208.443697214973
 20
370.3674254245892
 30
0.0
 11
199.734985062451
 21
370.3674254245892
 31
0.0
  0
ARC
  5
11C
330
1F
100
AcDbEntity
  8
NoLayerName_005
  6
Continuous
 62
    30
370
    50
100
AcDbCircle
 10
199.734985062451
 20
368.3674254245892
 30
0.0
 40
2.0
100
AcDbArc
 50
90.0
 51
180.0
  0
ARC
  5
11D
330
1F
100
AcDbEntity
  8
NoLayerName_005
  6
Continuous
 62
    30
370
    50
100
AcDbCircle
 10
198.234985062451
 20
345.6587132720671
 30
0.0
 40
0.5
100
AcDbArc
 50
180.0
 51
246.4218215217981
  0
ARC
  5
11E
330
1F
100
AcDbEntity
  8
NoLayerName_005
  6
Continuous
 62
    30
370
    50
100
AcDbCircle
 10
208.443697214973
 20
369.8674254245892
 30
0.0
 40
0.5
100
AcDbArc
 50
23.57817847820187
 51
90.0
  0
LINE
  5
11F
330
1F
100
AcDbEntity
  8
NoLayerName_005
  6
Continuous
 62
    30
370
    50
100
AcDbLine
 10
197.734985062451
 20
306.3674254245891
 30
0.0
 11
197.734985062451
 21
329.0761375771112
 31
0.0
  0
ARC
  5
120
330
1F
100
AcDbEntity
  8
NoLayerName_005
  6
Continuous
 62
    30
370
    50
100
AcDbCircle
 10
198.234985062451
 20
329.0761375771112
 30
0.0
 40
0.5
100
AcDbArc
 50
113.5781784782019
 51
180.0
  0
ARC
  5
121
330
1F
100
AcDbEntity
  8
NoLayerName_005
  6
Continuous
 62
    30
370
    50
100
AcDbCircle
 10
199.734985062451
 20
306.3674254245891
 30
0.0
 40
2.0
100
AcDbArc
 50
180.0
 51
270.0
  0
LINE
  5
122
330
1F
100
AcDbEntity
  8
NoLayerName_005
  6
Continuous
 62
    30
370
    50
100
AcDbLine
 10
233.734985062451
 20
331.0761375771112
 30
0.0
 11
233.734985062451
 21
306.3674254245892
 31
0.0
  0
ARC
  5
123
330
1F
100
AcDbEntity
  8
NoLayerName_005
  6
Continuous
 62
    30
370
    50
100
AcDbCircle
 10
231.734985062451
 20
306.3674254245891
 30
0.0
 40
2.0
100
AcDbArc
 50
270.0
 51
0.0
  0
ARC
  5
124
330
1F
100
AcDbEntity
  8
NoLayerName_005
  6
Continuous
 62
    30
370
    50
100
AcDbCircle
 10
233.234985062451
 20
331.0761375771112
 30
0.0
 40
0.5
100
AcDbArc
 50
0.0000000000000254
 51
66.42182152179818
  0
ARC
  5
125
330
1F
100
AcDbEntity
  8
NoLayerName_001
  6
Continuous
 62
    60
370
    50
100
AcDbCircle
 10
128.9427727497513
 20
337.3674254245891
 30
0.0
 40
2.0
100
AcDbArc
 50
270.0
 51
90.0
  0
LINE
  5
126
330
1F
100
AcDbEntity
  8
NoLayerName_001
  6
Continuous
 62
     4
370
    50
100
AcDbLine
 10
123.4427727497516
 20
291.3674254245891
 30
0.0
 11
126.8197900018659
 21
291.886966540299
 31
0.0
  0
LINE
  5
127
330
1F
100
AcDbEntity
  8
NoLayerName_001
  6
Continuous
 62
    60
370
    50
100
AcDbLine
 10
178.734985062451
 20
379.3674254245891
 30
0.0
 11
178.734985062451
 21
382.3674254245891
 31
0.0
  0
LINE
  5
128
330
1F
100
AcDbEntity
  8
NoLayerName_001
  6
Continuous
 62
    60
370
    50
100
AcDbLine
 10
181.734985062451
 20
379.3674254245891
 30
0.0
 11
178.734985062451
 21
379.3674254245891
 31
0.0
  0
LINE
  5
129
330
1F
100
AcDbEntity
  8
NoLayerName_001
  6
Continuous
 62
    60
370
    50
100
AcDbLine
 10
181.734985062451
 20
382.3674254245891
 30
0.0
 11
178.734985062451
 21
382.3674254245891
 31
0.0
  0
ARC
  5
12A
330
1F
100
AcDbEntity
  8
NoLayerName_002
  6
DOTSX
 62
     7
370
    25
100
AcDbCircle
 10
215.734985062451
 20
375.375973540262
 30
0.0
 40
0.5
100
AcDbArc
 50
191.0614461255584
 51
348.9385538744406
  0
ARC
  5
12B
330
1F
100
AcDbEntity
  8
NoLayerName_002
  6
DOTSX
 62
     7
370
    25
100
AcDbCircle
 10
216.4219804542794
 20
375.2416704069902
 30
0.0
 40
0.2
100
AcDbArc
 50
120.0
 51
168.9385538744405
  0
ARC
  5
12C
330
1F
100
AcDbEntity
  8
NoLayerName_001
  6
Continuous
 62
    60
370
    50
100
AcDbCircle
 10
184.734985062451
 20
376.8674254245892
 30
0.0
 40
3.0
100
AcDbArc
 50
180.0
 51
270.0
  0
LINE
  5
12D
330
1F
100
AcDbEntity
  8
NoLayerName_001
  6
Continuous
 62
    60
370
    50
100
AcDbLine
 10
240.234985062451
 20
346.5674254245893
 30
0.0
 11
240.234985062451
 21
345.5674254245893
 31
0.0
  0
LINE
  5
12E
330
1F
100
AcDbEntity
  8
NoLayerName_001
  6
Continuous
 62
    60
370
    50
100
AcDbLine
 10
241.1349850624508
 20
345.5674254245893
 30
0.0
 11
240.2349850624508
 21
345.5674254245893
 31
0.0
  0
LINE
  5
12F
330
1F
100
AcDbEntity
  8
NoLayerName_001
  6
Continuous
 62
    60
370
    50
100
AcDbLine
 10
240.234985062451
 20
346.5674254245893
 30
0.0
 11
241.734985062451
 21
346.5674254245893
 31
0.0
  0
LINE
  5
130
330
1F
100
AcDbEntity
  8
NoLayerName_001
  6
Continuous
 62
    60
370
    50
100
AcDbLine
 10
191.234985062451
 20
346.5674254245893
 30
0.0
 11
189.734985062451
 21
346.5674254245893
 31
0.0
  0
LINE
  5
131
330
1F
100
AcDbEntity
  8
NoLayerName_001
  6
Continuous
 62
    60
370
    50
100
AcDbLine
 10
191.234985062451
 20
346.5674254245893
 30
0.0
 11
191.234985062451
 21
345.5674254245893
 31
0.0
  0
LINE
  5
132
330
1F
100
AcDbEntity
  8
NoLayerName_001
  6
Continuous
 62
    60
370
    50
100
AcDbLine
 10
190.3349850624511
 20
345.5674254245893
 30
0.0
 11
191.2349850624511
 21
345.5674254245893
 31
0.0
  0
LINE
  5
133
330
1F
100
AcDbEntity
  8
NoLayerName_001
  6
Continuous
 62
    60
370
    50
100
AcDbLine
 10
187.234985062451
 20
344.3674254245891
 30
0.0
 11
187.234985062451
 21
357.3674254245891
 31
0.0
  0
LINE
  5
134
330
1F
100
AcDbEntity
  8
NoLayerName_001
  6
Continuous
 62
    60
370
    50
100
AcDbLine
 10
184.234985062451
 20
341.3674254245891
 30
0.0
 11
180.734985062451
 21
341.3674254245891
 31
0.0
  0
LINE
  5
135
330
1F
100
AcDbEntity
  8
NoLayerName_001
  6
Continuous
 62
    60
370
    50
100
AcDbLine
 10
187.234985062451
 20
330.3674254245891
 30
0.0
 11
187.234985062451
 21
317.3674254245891
 31
0.0
  0
LINE
  5
136
330
1F
100
AcDbEntity
  8
NoLayerName_001
  6
Continuous
 62
    60
370
    50
100
AcDbLine
 10
184.234985062451
 20
333.3674254245891
 30
0.0
 11
180.734985062451
 21
333.3674254245891
 31
0.0
  0
ARC
  5
137
330
1F
100
AcDbEntity
  8
NoLayerName_001
  6
Continuous
 62
    60
370
    50
100
AcDbCircle
 10
181.234985062451
 20
337.3674254245891
 30
0.0
 40
0.5
100
AcDbArc
 50
90.0
 51
270.0
  0
ARC
  5
138
330
1F
100
AcDbEntity
  8
NoLayerName_001
  6
Continuous
 62
    60
370
    50
100
AcDbCircle
 10
187.734985062451
 20
337.3674254245891
 30
0.0
 40
0.5
100
AcDbArc
 50
270.0
 51
90.0
  0
LINE
  5
139
330
1F
100
AcDbEntity
  8
NoLayerName_001
  6
Continuous
 62
    60
370
    50
100
AcDbLine
 10
187.734985062451
 20
336.8674254245891
 30
0.0
 11
181.234985062451
 21
336.8674254245891
 31
0.0
  0
HATCH
  5
13A
330
1F
100
AcDbEntity
  8
NoLayerName_001
  6
Continuous
 62
     7
370
    25
100
AcDbHatch
 10
0.0
 20
0.0
 30
0.0
210
0.0
220
0.0
230
1.0
  2
SOLID
 70
     1
 71
     0
 91
        1
 92
        1
 93
        4
 72
     1
 10
188.234985062451
 20
337.3674254245891
 11
184.734985062451
 21
337.3674254245891
 72
     1
 10
184.734985062451
 20
337.3674254245891
 11
184.734985062451
 21
337.8674254245891
 72
     1
 10
184.734985062451
 20
337.8674254245891
 11
187.734985062451
 21
337.8674254245891
 72
     2
 10
187.734985062451
 20
337.3674254245891
 40
0.5
 50
270.0
 51
360.0
 73
     0
 97
        0
 75
     1
 76
     1
 98
        1
 10
184.734985062451
 20
337.3723380019047
  0
HATCH
  5
13B
330
1F
100
AcDbEntity
  8
NoLayerName_001
  6
Continuous
 62
     7
370
    25
100
AcDbHatch
 10
0.0
 20
0.0
 30
0.0
210
0.0
220
0.0
230
1.0
  2
SOLID
 70
     1
 71
     0
 91
        1
 92
        1
 93
        4
 72
     1
 10
187.734985062451
 20
336.8674254245891
 11
184.734985062451
 21
336.8674254245891
 72
     1
 10
184.734985062451
 20
336.8674254245891
 11
184.734985062451
 21
337.3674254245891
 72
     1
 10
184.734985062451
 20
337.3674254245891
 11
188.234985062451
 21
337.367425424589
 72
     2
 10
187.734985062451
 20
337.3674254245891
 40
0.5
 50
0.0
 51
90.0
 73
     0
 97
        0
 75
     1
 76
     1
 98
        1
 10
184.734985062451
 20
336.9480739331929
  0
HATCH
  5
13C
330
1F
100
AcDbEntity
  8
NoLayerName_001
  6
Continuous
 62
     7
370
    25
100
AcDbHatch
 10
0.0
 20
0.0
 30
0.0
210
0.0
220
0.0
230
1.0
  2
ANSI31
 70
     0
 71
     0
 91
        1
 92
        1
 93
        4
 72
     1
 10
184.734985062451
 20
336.8674254245891
 11
181.234985062451
 21
336.8674254245891
 72
     1
 10
184.734985062451
 20
337.3674254245891
 11
184.734985062451
 21
336.8674254245891
 72
     1
 10
180.734985062451
 20
337.3674254245891
 11
184.734985062451
 21
337.3674254245891
 72
     2
 10
181.234985062451
 20
337.3674254245891
 40
0.5
 50
180.0
 51
270.0
 73
     1
 97
        0
 75
     1
 76
     1
 52
0.0000000000000064
 41
0.0315000000000205
 77
     0
 78
     1
 53
45.00000000000001
 43
0.0
 44
0.0
 45
-0.0707195169534656
 46
0.0707195169534656
 79
     0
 98
        1
 10
180.7468196757505
 20
337.2592840577232
  0
HATCH
  5
13D
330
1F
100
AcDbEntity
  8
NoLayerName_001
  6
Continuous
 62
     7
370
    25
100
AcDbHatch
 10
0.0
 20
0.0
 30
0.0
210
0.0
220
0.0
230
1.0
  2
SOLID
 70
     1
 71
     0
 91
        1
 92
        1
 93
        4
 72
     1
 10
184.734985062451
 20
337.3674254245891
 11
180.734985062451
 21
337.3674254245891
 72
     2
 10
181.234985062451
 20
337.3674254245891
 40
0.5
 50
180.0
 51
270.0
 73
     0
 72
     1
 10
181.234985062451
 20
337.8674254245891
 11
184.734985062451
 21
337.8674254245891
 72
     1
 10
184.734985062451
 20
337.8674254245891
 11
184.734985062451
 21
337.3674254245891
 97
        0
 75
     1
 76
     1
 98
        1
 10
180.7368583804698
 20
337.4106667092414
  0
LINE
  5
13E
330
1F
100
AcDbEntity
  8
NoLayerName_001
  6
Continuous
 62
    60
370
    50
100
AcDbLine
 10
244.234985062451
 20
333.3674254245891
 30
0.0
 11
241.734985062451
 21
333.3674254245891
 31
0.0
  0
LINE
  5
13F
330
1F
100
AcDbEntity
  8
NoLayerName_001
  6
Continuous
 62
    60
370
    50
100
AcDbLine
 10
244.234985062451
 20
341.3674254245891
 30
0.0
 11
241.734985062451
 21
341.3674254245891
 31
0.0
  0
LINE
  5
140
330
1F
100
AcDbEntity
  8
NoLayerName_001
  6
Continuous
 62
    60
370
    50
100
AcDbLine
 10
188.234985062451
 20
339.3674254245891
 30
0.0
 11
180.734985062451
 21
339.3674254245891
 31
0.0
  0
LINE
  5
141
330
1F
100
AcDbEntity
  8
NoLayerName_001
  6
Continuous
 62
    60
370
    50
100
AcDbLine
 10
188.234985062451
 20
335.3674254245891
 30
0.0
 11
180.734985062451
 21
335.3674254245891
 31
0.0
  0
LINE
  5
142
330
1F
100
AcDbEntity
  8
NoLayerName_001
  6
Continuous
 62
    60
370
    50
100
AcDbLine
 10
186.234985062451
 20
358.3674254245891
 30
0.0
 11
187.234985062451
 21
357.3674254245891
 31
0.0
  0
LINE
  5
143
330
1F
100
AcDbEntity
  8
NoLayerName_001
  6
Continuous
 62
    60
370
    50
100
AcDbLine
 10
186.234985062451
 20
308.3674254245891
 30
0.0
 11
187.234985062451
 21
307.3674254245891
 31
0.0
  0
LINE
  5
144
330
1F
100
AcDbEntity
  8
NoLayerName_001
  6
Continuous
 62
    60
370
    50
100
AcDbLine
 10
186.234985062451
 20
316.3674254245891
 30
0.0
 11
187.234985062451
 21
317.3674254245891
 31
0.0
  0
LINE
  5
145
330
1F
100
AcDbEntity
  8
NoLayerName_001
  6
Continuous
 62
    60
370
    50
100
AcDbLine
 10
186.234985062451
 20
366.3674254245891
 30
0.0
 11
187.234985062451
 21
367.3674254245891
 31
0.0
  0
CIRCLE
  5
146
330
1F
100
AcDbEntity
  8
NoLayerName_001
  6
Continuous
 62
    60
370
    50
100
AcDbCircle
 10
215.734985062451
 20
337.3674254245891
 30
0.0
 40
1.9
  0
ARC
  5
147
330
1F
100
AcDbEntity
  8
NoLayerName_001
  6
Continuous
 62
    60
370
    50
100
AcDbCircle
 10
215.734985062451
 20
337.3674254245891
 30
0.0
 40
2.5
100
AcDbArc
 50
16.26020470831146
 51
343.7397952916883
  0
LINE
  5
148
330
1F
100
AcDbEntity
  8
NoLayerName_001
  6
Continuous
 62
    60
370
    50
100
AcDbLine
 10
189.734985062451
 20
342.3674254245891
 30
0.0
 11
188.234985062451
 21
339.3674254245891
 31
0.0
  0
LINE
  5
149
330
1F
100
AcDbEntity
  8
NoLayerName_001
  6
Continuous
 62
    60
370
    50
100
AcDbLine
 10
188.234985062451
 20
339.3674254245891
 30
0.0
 11
188.234985062451
 21
335.3674254245891
 31
0.0
  0
LINE
  5
14A
330
1F
100
AcDbEntity
  8
NoLayerName_001
  6
Continuous
 62
    60
370
    50
100
AcDbLine
 10
189.734985062451
 20
332.3674254245891
 30
0.0
 11
188.234985062451
 21
335.3674254245891
 31
0.0
  0
ARC
  5
14B
330
1F
100
AcDbEntity
  8
NoLayerName_001
  6
Continuous
 62
    60
370
    50
100
AcDbCircle
 10
186.734985062451
 20
373.3674254245892
 30
0.0
 40
0.5
100
AcDbArc
 50
0.0
 51
90.0
  0
LINE
  5
14C
330
1F
100
AcDbEntity
  8
NoLayerName_001
  6
Continuous
 62
    60
370
    50
100
AcDbLine
 10
187.234985062451
 20
301.3674254245892
 30
0.0
 11
187.234985062451
 21
307.3674254245892
 31
0.0
  0
ARC
  5
14D
330
1F
100
AcDbEntity
  8
NoLayerName_001
  6
Continuous
 62
    60
370
    50
100
AcDbCircle
 10
186.734985062451
 20
301.3674254245892
 30
0.0
 40
0.5
100
AcDbArc
 50
270.0
 51
0.0
  0
LINE
  5
14E
330
1F
100
AcDbEntity
  8
NoLayerName_001
  6
Continuous
 62
    60
370
    50
100
AcDbLine
 10
190.734985062451
 20
348.7674254245891
 30
0.0
 11
189.734985062451
 21
348.7674254245891
 31
0.0
  0
LINE
  5
14F
330
1F
100
AcDbEntity
  8
NoLayerName_001
  6
Continuous
 62
    60
370
    50
100
AcDbLine
 10
189.734985062451
 20
349.9674254245891
 30
0.0
 11
190.854985062451
 21
349.1274254245891
 31
0.0
  0
ARC
  5
150
330
1F
100
AcDbEntity
  8
NoLayerName_001
  6
Continuous
 62
    60
370
    50
100
AcDbCircle
 10
190.734985062451
 20
348.9674254245891
 30
0.0
 40
0.2
100
AcDbArc
 50
270.0
 51
53.13010235415435
  0
ARC
  5
151
330
1F
100
AcDbEntity
  8
NoLayerName_001
  6
Continuous
 62
    60
370
    50
100
AcDbCircle
 10
190.3349850624511
 20
344.9674254245894
 30
0.0
 40
0.6000000000000001
100
AcDbArc
 50
90.0
 51
180.0
  0
LINE
  5
152
330
1F
100
AcDbEntity
  8
NoLayerName_001
  6
Continuous
 62
    60
370
    50
100
AcDbLine
 10
241.734985062451
 20
349.9674254245891
 30
0.0
 11
240.614985062451
 21
349.1274254245891
 31
0.0
  0
ARC
  5
153
330
1F
100
AcDbEntity
  8
NoLayerName_001
  6
Continuous
 62
    60
370
    50
100
AcDbCircle
 10
240.734985062451
 20
348.9674254245891
 30
0.0
 40
0.2
100
AcDbArc
 50
126.8698976458456
 51
270.0
  0
LINE
  5
154
330
1F
100
AcDbEntity
  8
NoLayerName_001
  6
Continuous
 62
    60
370
    50
100
AcDbLine
 10
240.734985062451
 20
348.7674254245891
 30
0.0
 11
241.734985062451
 21
348.7674254245891
 31
0.0
  0
ARC
  5
155
330
1F
100
AcDbEntity
  8
NoLayerName_001
  6
Continuous
 62
    60
370
    50
100
AcDbCircle
 10
241.1349850624508
 20
344.9674254245894
 30
0.0
 40
0.6000000000000001
100
AcDbArc
 50
360.0
 51
90.0
  0
ARC
  5
156
330
1F
100
AcDbEntity
  8
NoLayerName_001
  6
Continuous
 62
    60
370
    50
100
AcDbCircle
 10
183.734985062451
 20
385.8674254245892
 30
0.0
 40
2.0
100
AcDbArc
 50
90.0
 51
180.0
  0
ARC
  5
157
330
1F
100
AcDbEntity
  8
NoLayerName_002
  6
DOTSX
 62
     7
370
    25
100
AcDbCircle
 10
215.0479896706225
 20
375.2416704069902
 30
0.0
 40
0.2
100
AcDbArc
 50
11.06144612555947
 51
59.99999999999999
  0
LINE
  5
158
330
1F
100
AcDbEntity
  8
NoLayerName_003
  6
CENTER
 62
    30
370
    25
100
AcDbLine
 10
142.8445299462437
 20
337.3674254245891
 30
0.0
 11
98.70735865027495
 21
337.3674254245891
 31
0.0
  0
LINE
  5
159
330
1F
100
AcDbEntity
  8
NoLayerName_001
  6
Continuous
 62
    60
370
    50
100
AcDbLine
 10
138.9427727497513
 20
373.867425424589
 30
0.0
 11
135.9427727497513
 21
373.867425424589
 31
0.0
  0
LINE
  5
15A
330
1F
100
AcDbEntity
  8
NoLayerName_001
  6
Continuous
 62
    60
370
    50
100
AcDbLine
 10
132.9427727497513
 20
373.867425424589
 30
0.0
 11
102.9427727497513
 21
373.867425424589
 31
0.0
  0
LINE
  5
15B
330
1F
100
AcDbEntity
  8
NoLayerName_001
  6
Continuous
 62
    60
370
    50
100
AcDbLine
 10
132.9427727497513
 20
341.3674254245891
 30
0.0
 11
132.9427727497513
 21
358.367425424589
 31
0.0
  0
LINE
  5
15C
330
1F
100
AcDbEntity
  8
NoLayerName_001
  6
Continuous
 62
    60
370
    50
100
AcDbLine
 10
138.9427727497513
 20
341.3674254245891
 30
0.0
 11
135.9427727497513
 21
341.3674254245891
 31
0.0
  0
LINE
  5
15D
330
1F
100
AcDbEntity
  8
NoLayerName_001
  6
Continuous
 62
    60
370
    50
100
AcDbLine
 10
132.9427727497513
 20
341.3674254245891
 30
0.0
 11
104.9427727497513
 21
341.3674254245891
 31
0.0
  0
LINE
  5
15E
330
1F
100
AcDbEntity
  8
NoLayerName_001
  6
Continuous
 62
    60
370
    50
100
AcDbLine
 10
138.9427727497513
 20
333.3674254245891
 30
0.0
 11
135.9427727497513
 21
333.3674254245891
 31
0.0
  0
LINE
  5
15F
330
1F
100
AcDbEntity
  8
NoLayerName_001
  6
Continuous
 62
    60
370
    50
100
AcDbLine
 10
132.9427727497513
 20
333.3674254245891
 30
0.0
 11
104.9427727497513
 21
333.3674254245891
 31
0.0
  0
LINE
  5
160
330
1F
100
AcDbEntity
  8
NoLayerName_001
  6
Continuous
 62
    60
370
    50
100
AcDbLine
 10
138.9427727497513
 20
357.3674254245891
 30
0.0
 11
135.9427727497513
 21
357.3674254245891
 31
0.0
  0
LINE
  5
161
330
1F
100
AcDbEntity
  8
NoLayerName_001
  6
Continuous
 62
    60
370
    50
100
AcDbLine
 10
105.9427727497512
 20
364.3674254245891
 30
0.0
 11
105.9427727497512
 21
366.3674254245891
 31
0.0
  0
LINE
  5
162
330
1F
100
AcDbEntity
  8
NoLayerName_001
  6
Continuous
 62
    60
370
    50
100
AcDbLine
 10
105.4427727497512
 20
364.3674254245891
 30
0.0
 11
105.4427727497512
 21
366.3674254245891
 31
0.0
  0
LINE
  5
163
330
1F
100
AcDbEntity
  8
NoLayerName_001
  6
Continuous
 62
    60
370
    50
100
AcDbLine
 10
105.9427727497512
 20
360.3674254245891
 30
0.0
 11
105.9427727497512
 21
358.3674254245891
 31
0.0
  0
LINE
  5
164
330
1F
100
AcDbEntity
  8
NoLayerName_001
  6
Continuous
 62
    60
370
    50
100
AcDbLine
 10
105.4427727497512
 20
360.3674254245891
 30
0.0
 11
105.4427727497512
 21
358.3674254245891
 31
0.0
  0
LINE
  5
165
330
1F
100
AcDbEntity
  8
NoLayerName_001
  6
Continuous
 62
    60
370
    50
100
AcDbLine
 10
135.9427727497513
 20
341.3674254245891
 30
0.0
 11
135.9427727497513
 21
358.367425424589
 31
0.0
  0
LINE
  5
166
330
1F
100
AcDbEntity
  8
NoLayerName_001
  6
Continuous
 62
    60
370
    50
100
AcDbLine
 10
105.4427727497512
 20
364.3674254245891
 30
0.0
 11
105.4427727497512
 21
360.3674254245891
 31
0.0
  0
LINE
  5
167
330
1F
100
AcDbEntity
  8
NoLayerName_001
  6
Continuous
 62
    60
370
    50
100
AcDbLine
 10
135.9427727497513
 20
366.3674254245891
 30
0.0
 11
135.9427727497513
 21
376.8674254245891
 31
0.0
  0
LINE
  5
168
330
1F
100
AcDbEntity
  8
NoLayerName_001
  6
Continuous
 62
    60
370
    50
100
AcDbLine
 10
138.9427727497513
 20
339.3674254245891
 30
0.0
 11
138.9427727497513
 21
387.867425424589
 31
0.0
  0
LINE
  5
169
330
1F
100
AcDbEntity
  8
NoLayerName_001
  6
Continuous
 62
    60
370
    50
100
AcDbLine
 10
138.9427727497513
 20
336.8674254245891
 30
0.0
 11
138.9427727497513
 21
337.8674254245891
 31
0.0
  0
LINE
  5
16A
330
1F
100
AcDbEntity
  8
NoLayerName_001
  6
Continuous
 62
    60
370
    50
100
AcDbLine
 10
138.4427727497513
 20
337.8674254245891
 30
0.0
 11
138.4427727497513
 21
339.3674254245891
 31
0.0
  0
LINE
  5
16B
330
1F
100
AcDbEntity
  8
NoLayerName_001
  6
Continuous
 62
    60
370
    50
100
AcDbLine
 10
138.9427727497513
 20
337.8674254245891
 30
0.0
 11
138.4427727497513
 21
337.8674254245891
 31
0.0
  0
LINE
  5
16C
330
1F
100
AcDbEntity
  8
NoLayerName_001
  6
Continuous
 62
    60
370
    50
100
AcDbLine
 10
138.4427727497513
 20
339.3674254245891
 30
0.0
 11
138.9427727497513
 21
339.3674254245891
 31
0.0
  0
LINE
  5
16D
330
1F
100
AcDbEntity
  8
NoLayerName_001
  6
Continuous
 62
    60
370
    50
100
AcDbLine
 10
138.4427727497513
 20
336.8674254245891
 30
0.0
 11
138.4427727497513
 21
335.3674254245891
 31
0.0
  0
LINE
  5
16E
330
1F
100
AcDbEntity
  8
NoLayerName_001
  6
Continuous
 62
    60
370
    50
100
AcDbLine
 10
138.4427727497513
 20
335.3674254245891
 30
0.0
 11
138.9427727497513
 21
335.3674254245891
 31
0.0
  0
LINE
  5
16F
330
1F
100
AcDbEntity
  8
NoLayerName_001
  6
Continuous
 62
    60
370
    50
100
AcDbLine
 10
138.9427727497513
 20
336.8674254245891
 30
0.0
 11
138.4427727497513
 21
336.8674254245891
 31
0.0
  0
LINE
  5
170
330
1F
100
AcDbEntity
  8
NoLayerName_001
  6
Continuous
 62
    60
370
    50
100
AcDbLine
 10
135.9427727497513
 20
360.3674254245891
 30
0.0
 11
135.9427727497513
 21
364.3674254245891
 31
0.0
  0
LINE
  5
171
330
1F
100
AcDbEntity
  8
NoLayerName_001
  6
Continuous
 62
    60
370
    50
100
AcDbLine
 10
135.9427727497513
 20
364.3674254245891
 30
0.0
 11
135.9427727497513
 21
366.3674254245891
 31
0.0
  0
LINE
  5
172
330
1F
100
AcDbEntity
  8
NoLayerName_001
  6
Continuous
 62
    60
370
    50
100
AcDbLine
 10
135.4427727497513
 20
364.3674254245891
 30
0.0
 11
135.4427727497513
 21
366.3674254245891
 31
0.0
  0
LINE
  5
173
330
1F
100
AcDbEntity
  8
NoLayerName_001
  6
Continuous
 62
    60
370
    50
100
AcDbLine
 10
134.9427727497513
 20
364.3674254245891
 30
0.0
 11
134.9427727497513
 21
366.3674254245891
 31
0.0
  0
LINE
  5
174
330
1F
100
AcDbEntity
  8
NoLayerName_001
  6
Continuous
 62
    60
370
    50
100
AcDbLine
 10
135.9427727497513
 20
360.3674254245891
 30
0.0
 11
135.9427727497513
 21
358.3674254245891
 31
0.0
  0
LINE
  5
175
330
1F
100
AcDbEntity
  8
NoLayerName_001
  6
Continuous
 62
    60
370
    50
100
AcDbLine
 10
135.4427727497513
 20
360.3674254245891
 30
0.0
 11
135.4427727497513
 21
358.3674254245891
 31
0.0
  0
LINE
  5
176
330
1F
100
AcDbEntity
  8
NoLayerName_001
  6
Continuous
 62
    60
370
    50
100
AcDbLine
 10
134.9427727497513
 20
360.3674254245891
 30
0.0
 11
134.9427727497513
 21
358.3674254245891
 31
0.0
  0
ARC
  5
177
330
1F
100
AcDbEntity
  8
NoLayerName_001
  6
Continuous
 62
    60
370
    50
100
AcDbCircle
 10
104.9427727497512
 20
385.8674254245891
 30
0.0
 40
2.0
100
AcDbArc
 50
90.0
 51
180.0
  0
LINE
  5
178
330
1F
100
AcDbEntity
  8
NoLayerName_001
  6
Continuous
 62
    60
370
    50
100
AcDbLine
 10
138.9427727497513
 20
366.3674254245891
 30
0.0
 11
104.9427727497513
 21
366.3674254245891
 31
0.0
  0
LINE
  5
179
330
1F
100
AcDbEntity
  8
NoLayerName_001
  6
Continuous
 62
    60
370
    50
100
AcDbLine
 10
104.9427727497512
 20
367.3674254245891
 30
0.0
 11
104.9427727497512
 21
364.3674254245891
 31
0.0
  0
LINE
  5
17A
330
1F
100
AcDbEntity
  8
NoLayerName_001
  6
Continuous
 62
    60
370
    50
100
AcDbLine
 10
105.4427727497512
 20
335.467425424589
 30
0.0
 11
105.4427727497512
 21
339.367425424589
 31
0.0
  0
LINE
  5
17B
330
1F
100
AcDbEntity
  8
NoLayerName_001
  6
Continuous
 62
    60
370
    50
100
AcDbLine
 10
104.9427727497512
 20
360.3674254245891
 30
0.0
 11
104.9427727497512
 21
357.3674254245891
 31
0.0
  0
LINE
  5
17C
330
1F
100
AcDbEntity
  8
NoLayerName_001
  6
Continuous
 62
    60
370
    50
100
AcDbLine
 10
104.9427727497512
 20
387.8674254245891
 30
0.0
 11
138.9427727497512
 21
387.8674254245891
 31
0.0
  0
LINE
  5
17D
330
1F
100
AcDbEntity
  8
NoLayerName_005
  6
Continuous
 62
    30
370
    50
100
AcDbLine
 10
219.234985062451
 20
301.8674254245891
 30
0.0
 11
232.234985062451
 21
301.8674254245891
 31
0.0
  0
ARC
  5
17E
330
1F
100
AcDbEntity
  8
NoLayerName_005
  6
Continuous
 62
    30
370
    50
100
AcDbCircle
 10
219.234985062451
 20
303.8674254245891
 30
0.0
 40
2.0
100
AcDbArc
 50
120.0000000000001
 51
270.0
  0
ARC
  5
17F
330
1F
100
AcDbEntity
  8
NoLayerName_005
  6
Continuous
 62
    30
370
    50
100
AcDbCircle
 10
226.2349850624505
 20
306.3674254245891
 30
0.0
 40
2.0
100
AcDbArc
 50
179.9999999999999
 51
270.0
  0
LINE
  5
180
330
1F
100
AcDbEntity
  8
NoLayerName_005
  6
Continuous
 62
    30
370
    50
100
AcDbLine
 10
226.2349850624505
 20
304.3674254245891
 30
0.0
 11
231.7349850624509
 21
304.3674254245891
 31
0.0
  0
LINE
  5
181
330
1F
100
AcDbEntity
  8
NoLayerName_005
  6
Continuous
 62
    30
370
    50
100
AcDbLine
 10
212.234985062451
 20
301.8674254245891
 30
0.0
 11
199.234985062451
 21
301.8674254245891
 31
0.0
  0
ARC
  5
182
330
1F
100
AcDbEntity
  8
NoLayerName_005
  6
Continuous
 62
    30
370
    50
100
AcDbCircle
 10
212.234985062451
 20
303.8674254245891
 30
0.0
 40
2.0
100
AcDbArc
 50
270.0
 51
59.99999999999988
  0
LINE
  5
183
330
1F
100
AcDbEntity
  8
NoLayerName_005
  6
Continuous
 62
    30
370
    50
100
AcDbLine
 10
205.2349850624514
 20
304.3674254245891
 30
0.0
 11
199.7349850624509
 21
304.3674254245891
 31
0.0
  0
ARC
  5
184
330
1F
100
AcDbEntity
  8
NoLayerName_005
  6
Continuous
 62
    30
370
    50
100
AcDbCircle
 10
205.2349850624514
 20
306.3674254245891
 30
0.0
 40
2.0
100
AcDbArc
 50
269.9999999999999
 51
0.0
  0
LINE
  5
185
330
1F
100
AcDbEntity
  8
NoLayerName_001
  6
DOTSX
 62
     4
370
    25
100
AcDbLine
 10
215.134985062451
 20
382.3674254245892
 30
0.0
 11
214.934985062451
 21
385.3674254245892
 31
0.0
  0
LINE
  5
186
330
1F
100
AcDbEntity
  8
NoLayerName_001
  6
DOTSX
 62
     4
370
    25
100
AcDbLine
 10
216.334985062451
 20
382.3674254245892
 30
0.0
 11
216.534985062451
 21
385.3674254245892
 31
0.0
  0
LINE
  5
187
330
1F
100
AcDbEntity
  8
NoLayerName_001
  6
DOTSX
 62
     4
370
    25
100
AcDbLine
 10
216.4683183957843
 20
384.3674254245892
 30
0.0
 11
215.0016517291176
 21
384.3674254245892
 31
0.0
  0
LINE
  5
188
330
1F
100
AcDbEntity
  8
NoLayerName_001
  6
DOTSX
 62
     4
370
    25
100
AcDbLine
 10
216.334985062451
 20
382.3674254245892
 30
0.0
 11
215.134985062451
 21
382.3674254245892
 31
0.0
  0
LINE
  5
189
330
1F
100
AcDbEntity
  8
NoLayerName_001
  6
Continuous
 62
    60
370
    50
100
AcDbLine
 10
184.734985062451
 20
373.8674254245892
 30
0.0
 11
186.734985062451
 21
373.8674254245892
 31
0.0
  0
LINE
  5
18A
330
1F
100
AcDbEntity
  8
NoLayerName_004
  6
Continuous
 62
    60
370
    50
100
AcDbLine
 10
242.234985062451
 20
387.8674254245892
 30
0.0
 11
183.734985062451
 21
387.8674254245892
 31
0.0
  0
ARC
  5
18B
330
1F
100
AcDbEntity
  8
NoLayerName_005
  6
Continuous
 62
    60
370
    50
100
AcDbCircle
 10
222.034985062451
 20
378.1674254245893
 30
0.0
 40
0.3
100
AcDbArc
 50
180.0
 51
270.0
  0
LINE
  5
18C
330
1F
100
AcDbEntity
  8
NoLayerName_005
  6
Continuous
 62
    60
370
    50
100
AcDbLine
 10
221.734985062451
 20
378.1674254245893
 30
0.0
 11
221.734985062451
 21
385.3674254245892
 31
0.0
  0
LINE
  5
18D
330
1F
100
AcDbEntity
  8
NoLayerName_001
  6
Continuous
 62
    60
370
    50
100
AcDbLine
 10
239.9349850624509
 20
377.8674254245891
 30
0.0
 11
238.4249850624509
 21
377.8674254245891
 31
0.0
  0
LINE
  5
18E
330
1F
100
AcDbEntity
  8
NoLayerName_001
  6
Continuous
 62
    60
370
    50
100
AcDbLine
 10
241.734985062451
 20
376.3674254245891
 30
0.0
 11
238.0249850624509
 21
376.3674254245891
 31
0.0
  0
LINE
  5
18F
330
1F
100
AcDbEntity
  8
NoLayerName_005
  6
Continuous
 62
    30
370
    50
100
AcDbLine
 10
216.734985062451
 20
373.8174254245891
 30
0.0
 11
216.734985062451
 21
374.1174254245891
 31
0.0
  0
LINE
  5
190
330
1F
100
AcDbEntity
  8
NoLayerName_005
  6
Continuous
 62
    30
370
    50
100
AcDbLine
 10
214.734985062451
 20
373.8174254245891
 30
0.0
 11
214.734985062451
 21
374.1174254245891
 31
0.0
  0
LINE
  5
191
330
1F
100
AcDbEntity
  8
NoLayerName_001
  6
Continuous
 62
    60
370
    50
100
AcDbLine
 10
244.234985062451
 20
385.8674254245892
 30
0.0
 11
244.234985062451
 21
337.3674254245892
 31
0.0
  0
LINE
  5
192
330
1F
100
AcDbEntity
  8
NoLayerName_001
  6
Continuous
 62
     4
370
    50
100
AcDbLine
 10
123.4427727497516
 20
383.3674254245891
 30
0.0
 11
126.8197900018659
 21
382.8478843088792
 31
0.0
  0
LINE
  5
193
330
1F
100
AcDbEntity
  8
NoLayerName_001
  6
Continuous
 62
    60
370
    50
100
AcDbLine
 10
181.734985062451
 20
307.3674254245891
 30
0.0
 11
181.734985062451
 21
288.8674254245891
 31
0.0
  0
ARC
  5
194
330
1F
100
AcDbEntity
  8
NoLayerName_005
  6
Continuous
 62
    30
370
    50
100
AcDbCircle
 10
217.3918393119432
 20
299.6174254245893
 30
0.0
 40
1.3
100
AcDbArc
 50
74.0576313943528
 51
90.0
  0
ARC
  5
195
330
1F
100
AcDbEntity
  8
NoLayerName_005
  6
Continuous
 62
    30
370
    50
100
AcDbCircle
 10
217.3918393119432
 20
299.6174254245893
 30
0.0
 40
1.3
100
AcDbArc
 50
45.00000000000043
 51
74.0576313943528
  0
ARC
  5
196
330
1F
100
AcDbEntity
  8
NoLayerName_005
  6
Continuous
 62
    30
370
    50
100
AcDbCircle
 10
214.0781308129588
 20
299.6174254245893
 30
0.0
 40
1.3
100
AcDbArc
 50
90.0
 51
105.9423686056472
  0
ARC
  5
197
330
1F
100
AcDbEntity
  8
NoLayerName_005
  6
Continuous
 62
    30
370
    50
100
AcDbCircle
 10
214.0781308129588
 20
299.6174254245893
 30
0.0
 40
1.3
100
AcDbArc
 50
105.9423686056472
 51
134.9999999999996
  0
LINE
  5
198
330
1F
100
AcDbEntity
  8
NoLayerName_005
  6
Continuous
 62
    30
370
    50
100
AcDbLine
 10
217.3918393119432
 20
300.6174254245893
 30
0.0
 11
214.0781308129588
 21
300.6174254245893
 31
0.0
  0
LINE
  5
199
330
1F
100
AcDbEntity
  8
NoLayerName_005
  6
Continuous
 62
    30
370
    50
100
AcDbLine
 10
218.0989460931297
 20
300.3245322057758
 30
0.0
 11
220.4420918436375
 21
297.981386455268
 31
0.0
  0
LINE
  5
19A
330
1F
100
AcDbEntity
  8
NoLayerName_005
  6
Continuous
 62
    30
370
    50
100
AcDbLine
 10
211.0278782812644
 20
297.981386455268
 30
0.0
 11
213.3710240317722
 21
300.3245322057758
 31
0.0
  0
ARC
  5
19B
330
1F
100
AcDbEntity
  8
NoLayerName_005
  6
Continuous
 62
    30
370
    50
100
AcDbCircle
 10
219.734985062451
 20
297.2742796740815
 30
0.0
 40
1.0
100
AcDbArc
 50
0.0
 51
45.0
  0
ARC
  5
19C
330
1F
100
AcDbEntity
  8
NoLayerName_005
  6
Continuous
 62
    30
370
    50
100
AcDbCircle
 10
211.734985062451
 20
297.2742796740815
 30
0.0
 40
1.0
100
AcDbArc
 50
134.9999999999999
 51
180.0
  0
ARC
  5
19D
330
1F
100
AcDbEntity
  8
NoLayerName_005
  6
Continuous
 62
    30
370
    50
100
AcDbCircle
 10
214.0781308129588
 20
299.6174254245893
 30
0.0
 40
1.0
100
AcDbArc
 50
90.0
 51
135.0
  0
ARC
  5
19E
330
1F
100
AcDbEntity
  8
NoLayerName_005
  6
Continuous
 62
    30
370
    50
100
AcDbCircle
 10
217.3918393119432
 20
299.6174254245893
 30
0.0
 40
1.0
100
AcDbArc
 50
45.0
 51
90.0
  0
LINE
  5
19F
330
1F
100
AcDbEntity
  8
NoLayerName_005
  6
Continuous
 62
    30
370
    50
100
AcDbLine
 10
216.734985062451
 20
300.9174254245893
 30
0.0
 11
217.3918393119432
 21
300.9174254245893
 31
0.0
  0
LINE
  5
1A0
330
1F
100
AcDbEntity
  8
NoLayerName_005
  6
Continuous
 62
    30
370
    50
100
AcDbLine
 10
218.734985062451
 20
300.1127573051665
 30
0.0
 11
218.3110781274856
 21
300.5366642401318
 31
0.0
  0
LINE
  5
1A1
330
1F
100
AcDbEntity
  8
NoLayerName_005
  6
Continuous
 62
    30
370
    50
100
AcDbLine
 10
214.734985062451
 20
300.9174254245893
 30
0.0
 11
214.0781308129588
 21
300.9174254245893
 31
0.0
  0
LINE
  5
1A2
330
1F
100
AcDbEntity
  8
NoLayerName_005
  6
Continuous
 62
    30
370
    50
100
AcDbLine
 10
212.734985062451
 20
300.1127573051665
 30
0.0
 11
213.1588919974163
 21
300.5366642401318
 31
0.0
  0
LINE
  5
1A3
330
1F
100
AcDbEntity
  8
NoLayerName_005
  6
Continuous
 62
    30
370
    50
100
AcDbLine
 10
212.734985062451
 20
299.6884932364545
 30
0.0
 11
212.734985062451
 21
300.1127573051665
 31
0.0
  0
LINE
  5
1A4
330
1F
100
AcDbEntity
  8
NoLayerName_005
  6
DOTSX
 62
     7
370
    25
100
AcDbLine
 10
216.734985062451
 20
300.6174254245893
 30
0.0
 11
216.734985062451
 21
299.3674254245893
 31
0.0
  0
LINE
  5
1A5
330
1F
100
AcDbEntity
  8
NoLayerName_005
  6
Continuous
 62
    30
370
    50
100
AcDbLine
 10
218.734985062451
 20
299.6884932364546
 30
0.0
 11
218.734985062451
 21
300.1127573051666
 31
0.0
  0
ARC
  5
1A6
330
1F
100
AcDbEntity
  8
NoLayerName_005
  6
Continuous
 62
    60
370
    50
100
AcDbCircle
 10
209.4349850624509
 20
296.5674254245891
 30
0.0
 40
0.3
100
AcDbArc
 50
0.0
 51
90.0
  0
LINE
  5
1A7
330
1F
100
AcDbEntity
  8
NoLayerName_005
  6
Continuous
 62
    60
370
    50
100
AcDbLine
 10
209.734985062451
 20
296.5674254245891
 30
0.0
 11
209.734985062451
 21
289.3674254245893
 31
0.0
  0
CIRCLE
  5
1A8
330
1F
100
AcDbEntity
  8
NoLayerName_005
  6
Continuous
 62
    30
370
    50
100
AcDbCircle
 10
215.734985062451
 20
295.6174254245892
 30
0.0
 40
2.25
  0
ARC
  5
1A9
330
1F
100
AcDbEntity
  8
NoLayerName_005
  6
Continuous
 62
    30
370
    50
100
AcDbCircle
 10
215.734985062451
 20
295.6174254245892
 30
0.0
 40
5.0
100
AcDbArc
 50
180.0
 51
0.0
  0
LINE
  5
1AA
330
1F
100
AcDbEntity
  8
NoLayerName_005
  6
Continuous
 62
    30
370
    50
100
AcDbLine
 10
210.734985062451
 20
297.2742796740815
 30
0.0
 11
210.734985062451
 21
289.3674254245892
 31
0.0
  0
LINE
  5
1AB
330
1F
100
AcDbEntity
  8
NoLayerName_005
  6
Continuous
 62
    30
370
    50
100
AcDbLine
 10
220.734985062451
 20
297.2742796740815
 30
0.0
 11
220.734985062451
 21
289.3674254245892
 31
0.0
  0
LINE
  5
1AC
330
1F
100
AcDbEntity
  8
NoLayerName_001
  6
Continuous
 62
    60
370
    50
100
AcDbLine
 10
178.734985062451
 20
295.3674254245892
 30
0.0
 11
178.734985062451
 21
292.3674254245892
 31
0.0
  0
LINE
  5
1AD
330
1F
100
AcDbEntity
  8
NoLayerName_001
  6
Continuous
 62
    60
370
    50
100
AcDbLine
 10
181.734985062451
 20
295.3674254245892
 30
0.0
 11
178.734985062451
 21
295.3674254245892
 31
0.0
  0
LINE
  5
1AE
330
1F
100
AcDbEntity
  8
NoLayerName_001
  6
Continuous
 62
    60
370
    50
100
AcDbLine
 10
181.734985062451
 20
292.3674254245892
 30
0.0
 11
178.734985062451
 21
292.3674254245892
 31
0.0
  0
ARC
  5
1AF
330
1F
100
AcDbEntity
  8
NoLayerName_002
  6
DOTSX
 62
     7
370
    25
100
AcDbCircle
 10
216.4219804542794
 20
299.4931804421882
 30
0.0
 40
0.2
100
AcDbArc
 50
191.0614461255595
 51
240.0
  0
ARC
  5
1B0
330
1F
100
AcDbEntity
  8
NoLayerName_001
  6
Continuous
 62
    60
370
    50
100
AcDbCircle
 10
184.734985062451
 20
297.8674254245891
 30
0.0
 40
3.0
100
AcDbArc
 50
90.0
 51
180.0
  0
LINE
  5
1B1
330
1F
100
AcDbEntity
  8
NoLayerName_001
  6
Continuous
 62
    60
370
    50
100
AcDbLine
 10
187.234985062451
 20
301.3674254245891
 30
0.0
 11
187.234985062451
 21
307.3674254245891
 31
0.0
  0
ARC
  5
1B2
330
1F
100
AcDbEntity
  8
NoLayerName_001
  6
Continuous
 62
    60
370
    50
100
AcDbCircle
 10
186.734985062451
 20
301.3674254245891
 30
0.0
 40
0.5
100
AcDbArc
 50
270.0
 51
0.0
  0
ARC
  5
1B3
330
1F
100
AcDbEntity
  8
NoLayerName_001
  6
Continuous
 62
    60
370
    50
100
AcDbCircle
 10
183.734985062451
 20
288.8674254245891
 30
0.0
 40
2.0
100
AcDbArc
 50
180.0
 51
270.0
  0
LINE
  5
1B4
330
1F
100
AcDbEntity
  8
NoLayerName_001
  6
Continuous
 62
    60
370
    50
100
AcDbLine
 10
184.734985062451
 20
300.8674254245891
 30
0.0
 11
186.734985062451
 21
300.8674254245891
 31
0.0
  0
LINE
  5
1B5
330
1F
100
AcDbEntity
  8
NoLayerName_001
  6
Continuous
 62
    60
370
    50
100
AcDbLine
 10
189.734985062451
 20
289.3674254245891
 30
0.0
 11
189.734985062451
 21
332.3674254245891
 31
0.0
  0
ARC
  5
1B6
330
1F
100
AcDbEntity
  8
NoLayerName_005
  6
Continuous
 62
    60
370
    50
100
AcDbCircle
 10
222.034985062451
 20
296.5674254245891
 30
0.0
 40
0.3
100
AcDbArc
 50
90.0
 51
180.0
  0
LINE
  5
1B7
330
1F
100
AcDbEntity
  8
NoLayerName_005
  6
Continuous
 62
    60
370
    50
100
AcDbLine
 10
221.734985062451
 20
296.5674254245891
 30
0.0
 11
221.734985062451
 21
289.3674254245893
 31
0.0
  0
LINE
  5
1B8
330
1F
100
AcDbEntity
  8
NoLayerName_005
  6
Continuous
 62
    30
370
    50
100
AcDbLine
 10
216.734985062451
 20
300.9174254245893
 30
0.0
 11
216.734985062451
 21
300.6174254245893
 31
0.0
  0
LINE
  5
1B9
330
1F
100
AcDbEntity
  8
NoLayerName_005
  6
Continuous
 62
    30
370
    50
100
AcDbLine
 10
214.734985062451
 20
300.9174254245893
 30
0.0
 11
214.734985062451
 21
300.6174254245893
 31
0.0
  0
LINE
  5
1BA
330
1F
100
AcDbEntity
  8
NoLayerName_001
  6
Continuous
 62
    60
370
    50
100
AcDbLine
 10
241.734985062451
 20
337.3674254245891
 30
0.0
 11
241.734985062451
 21
385.3674254245891
 31
0.0
  0
LINE
  5
1BB
330
1F
100
AcDbEntity
  8
NoLayerName_001
  6
Continuous
 62
    60
370
    50
100
AcDbLine
 10
191.234985062451
 20
342.3674254245891
 30
0.0
 11
189.734985062451
 21
342.3674254245891
 31
0.0
  0
LINE
  5
1BC
330
1F
100
AcDbEntity
  8
NoLayerName_001
  6
Continuous
 62
    60
370
    50
100
AcDbLine
 10
191.234985062451
 20
332.3674254245891
 30
0.0
 11
189.734985062451
 21
332.3674254245891
 31
0.0
  0
ARC
  5
1BD
330
1F
100
AcDbEntity
  8
NoLayerName_001
  6
Continuous
 62
    60
370
    50
100
AcDbCircle
 10
242.234985062451
 20
385.8674254245892
 30
0.0
 40
2.0
100
AcDbArc
 50
0.0
 51
89.99999999999999
  0
ARC
  5
1BE
330
1F
100
AcDbEntity
  8
NoLayerName_001
  6
Continuous
 62
     7
370
    50
100
AcDbCircle
 10
239.9349850624509
 20
378.1674254245891
 30
0.0
 40
0.3
100
AcDbArc
 50
270.0
 51
360.0
  0
LINE
  5
1BF
330
1F
100
AcDbEntity
  8
NoLayerName_001
  6
DOTSX
 62
     4
370
    25
100
AcDbLine
 10
216.334985062451
 20
292.3674254245891
 30
0.0
 11
216.534985062451
 21
289.3674254245892
 31
0.0
  0
LINE
  5
1C0
330
1F
100
AcDbEntity
  8
NoLayerName_001
  6
Continuous
 62
     7
370
    50
100
AcDbLine
 10
236.0349850624509
 20
377.8674254245891
 30
0.0
 11
236.434985062451
 21
376.3674254245891
 31
0.0
  0
LINE
  5
1C1
330
1F
100
AcDbEntity
  8
NoLayerName_001
  6
Continuous
 62
     7
370
    50
100
AcDbLine
 10
238.434985062451
 20
377.8674254245891
 30
0.0
 11
238.0349850624509
 21
376.3674254245891
 31
0.0
  0
LINE
  5
1C2
330
1F
100
AcDbEntity
  8
NoLayerName_001
  6
Continuous
 62
     7
370
    50
100
AcDbLine
 10
223.5349850624509
 20
377.8674254245891
 30
0.0
 11
223.934985062451
 21
376.3674254245891
 31
0.0
  0
LINE
  5
1C3
330
1F
100
AcDbEntity
  8
NoLayerName_001
  6
Continuous
 62
     7
370
    50
100
AcDbLine
 10
225.934985062451
 20
377.8674254245891
 30
0.0
 11
225.5349850624509
 21
376.3674254245891
 31
0.0
  0
LINE
  5
1C4
330
1F
100
AcDbEntity
  8
NoLayerName_005
  6
Continuous
 62
    60
370
    50
100
AcDbLine
 10
221.734985062451
 20
296.567425424589
 30
0.0
 11
221.734985062451
 21
289.3674254245892
 31
0.0
  0
ARC
  5
1C5
330
1F
100
AcDbEntity
  8
NoLayerName_001
  6
Continuous
 62
     7
370
    50
100
AcDbCircle
 10
239.9349850624509
 20
296.5674254245893
 30
0.0
 40
0.3
100
AcDbArc
 50
0.0000000000000127
 51
90.0
  0
LINE
  5
1C6
330
1F
100
AcDbEntity
  8
NoLayerName_001
  6
Continuous
 62
     7
370
    50
100
AcDbLine
 10
223.5349850624509
 20
296.8674254245892
 30
0.0
 11
223.934985062451
 21
298.3674254245892
 31
0.0
  0
LINE
  5
1C7
330
1F
100
AcDbEntity
  8
NoLayerName_001
  6
Continuous
 62
     7
370
    50
100
AcDbLine
 10
225.934985062451
 20
296.8674254245892
 30
0.0
 11
225.5349850624509
 21
298.3674254245892
 31
0.0
  0
LINE
  5
1C8
330
1F
100
AcDbEntity
  8
NoLayerName_001
  6
Continuous
 62
     7
370
    50
100
AcDbLine
 10
205.5349850624509
 20
377.8674254245891
 30
0.0
 11
205.934985062451
 21
376.3674254245891
 31
0.0
  0
LINE
  5
1C9
330
1F
100
AcDbEntity
  8
NoLayerName_001
  6
Continuous
 62
     7
370
    50
100
AcDbLine
 10
207.934985062451
 20
377.8674254245891
 30
0.0
 11
207.5349850624509
 21
376.3674254245891
 31
0.0
  0
LINE
  5
1CA
330
1F
100
AcDbEntity
  8
NoLayerName_001
  6
Continuous
 62
     7
370
    50
100
AcDbLine
 10
191.5349850624509
 20
377.8674254245891
 30
0.0
 11
191.934985062451
 21
376.3674254245891
 31
0.0
  0
LINE
  5
1CB
330
1F
100
AcDbEntity
  8
NoLayerName_001
  6
Continuous
 62
     7
370
    50
100
AcDbLine
 10
193.934985062451
 20
377.8674254245891
 30
0.0
 11
193.5349850624509
 21
376.3674254245891
 31
0.0
  0
LINE
  5
1CC
330
1F
100
AcDbEntity
  8
NoLayerName_001
  6
Continuous
 62
     7
370
    50
100
AcDbLine
 10
205.5349850624509
 20
296.8674254245892
 30
0.0
 11
205.934985062451
 21
298.3674254245892
 31
0.0
  0
LINE
  5
1CD
330
1F
100
AcDbEntity
  8
NoLayerName_001
  6
Continuous
 62
     7
370
    50
100
AcDbLine
 10
207.934985062451
 20
296.8674254245892
 30
0.0
 11
207.5349850624509
 21
298.3674254245892
 31
0.0
  0
LINE
  5
1CE
330
1F
100
AcDbEntity
  8
NoLayerName_001
  6
Continuous
 62
     7
370
    50
100
AcDbLine
 10
191.5349850624509
 20
296.8674254245892
 30
0.0
 11
191.934985062451
 21
298.3674254245892
 31
0.0
  0
LINE
  5
1CF
330
1F
100
AcDbEntity
  8
NoLayerName_001
  6
Continuous
 62
     7
370
    50
100
AcDbLine
 10
193.934985062451
 20
296.8674254245892
 30
0.0
 11
193.5349850624509
 21
298.3674254245892
 31
0.0
  0
LINE
  5
1D0
330
1F
100
AcDbEntity
  8
NoLayerName_001
  6
Continuous
 62
     7
370
    50
100
AcDbLine
 10
193.334985062451
 20
226.8728390790558
 30
0.0
 11
195.134985062451
 21
226.8728390790558
 31
0.0
  0
LINE
  5
1D1
330
1F
100
AcDbEntity
  8
NoLayerName_001
  6
Continuous
 62
     7
370
    50
100
AcDbLine
 10
195.734985062451
 20
228.2728390790557
 30
0.0
 11
195.734985062451
 21
227.4728390790557
 31
0.0
  0
LINE
  5
1D2
330
1F
100
AcDbEntity
  8
NoLayerName_001
  6
Continuous
 62
     7
370
    50
100
AcDbLine
 10
192.734985062451
 20
227.4728390790557
 30
0.0
 11
192.734985062451
 21
228.2728390790558
 31
0.0
  0
ARC
  5
1D3
330
1F
100
AcDbEntity
  8
NoLayerName_001
  6
Continuous
 62
     7
370
    50
100
AcDbCircle
 10
195.1349850624509
 20
227.4728390790557
 30
0.0
 40
0.6
100
AcDbArc
 50
270.0
 51
0.0
  0
LINE
  5
1D4
330
1F
100
AcDbEntity
  8
NoLayerName_001
  6
Continuous
 62
     7
370
    50
100
AcDbLine
 10
193.334985062451
 20
228.8728390790558
 30
0.0
 11
195.134985062451
 21
228.8728390790558
 31
0.0
  0
ARC
  5
1D5
330
1F
100
AcDbEntity
  8
NoLayerName_001
  6
Continuous
 62
     7
370
    50
100
AcDbCircle
 10
195.1349850624509
 20
228.2728390790557
 30
0.0
 40
0.6
100
AcDbArc
 50
0.0000000000000127
 51
90.0
  0
ARC
  5
1D6
330
1F
100
AcDbEntity
  8
NoLayerName_001
  6
Continuous
 62
     7
370
    50
100
AcDbCircle
 10
193.334985062451
 20
228.2728390790557
 30
0.0
 40
0.6
100
AcDbArc
 50
90.0
 51
180.0
  0
ARC
  5
1D7
330
1F
100
AcDbEntity
  8
NoLayerName_001
  6
Continuous
 62
     7
370
    50
100
AcDbCircle
 10
193.334985062451
 20
227.4728390790557
 30
0.0
 40
0.6
100
AcDbArc
 50
180.0
 51
270.0
  0
ARC
  5
1D8
330
1F
100
AcDbEntity
  8
NoLayerName_006
  6
Continuous
 62
    60
370
    50
100
AcDbCircle
 10
198.234985062451
 20
213.6728390790558
 30
0.0
 40
14.0
100
AcDbArc
 50
360.0
 51
100.2683057980102
  0
ARC
  5
1D9
330
1F
100
AcDbEntity
  8
NoLayerName_006
  6
Continuous
 62
    60
370
    50
100
AcDbCircle
 10
198.234985062451
 20
213.6728390790558
 30
0.0
 40
14.0
100
AcDbArc
 50
110.3655362640889
 51
180.0
  0
LINE
  5
1DA
330
1F
100
AcDbEntity
  8
NoLayerName_001
  6
Continuous
 62
     6
370
    50
100
AcDbLine
 10
190.939082301889
 20
208.1942473207418
 30
0.0
 11
190.3049789146849
 21
205.0298268884562
 31
0.0
  0
LINE
  5
1DB
330
1F
100
AcDbEntity
  8
NoLayerName_001
  6
Continuous
 62
     6
370
    50
100
AcDbLine
 10
188.0791507956939
 20
207.1571351371089
 30
0.0
 11
187.3502405807365
 21
204.744945064916
 31
0.0
  0
ARC
  5
1DC
330
1F
100
AcDbEntity
  8
NoLayerName_001
  6
Continuous
 62
     6
370
    50
100
AcDbCircle
 10
187.6962505504368
 20
207.2728390790557
 30
0.0
 40
0.4
100
AcDbArc
 50
343.1863501928618
 51
85.27785371320549
  0
LINE
  5
1DD
330
1F
100
AcDbEntity
  8
NoLayerName_001
  6
Continuous
 62
     6
370
    50
100
AcDbLine
 10
205.5308878230129
 20
208.1942473207418
 30
0.0
 11
206.164991210217
 21
205.0298268884562
 31
0.0
  0
LINE
  5
1DE
330
1F
100
AcDbEntity
  8
NoLayerName_001
  6
Continuous
 62
     6
370
    50
100
AcDbLine
 10
208.390819329208
 20
207.1571351371089
 30
0.0
 11
209.1197295441654
 21
204.744945064916
 31
0.0
  0
ARC
  5
1DF
330
1F
100
AcDbEntity
  8
NoLayerName_001
  6
Continuous
 62
     6
370
    50
100
AcDbCircle
 10
208.7737195744651
 20
207.2728390790557
 30
0.0
 40
0.4
100
AcDbArc
 50
94.72214628679454
 51
196.8136498071383
  0
ARC
  5
1E0
330
1F
100
AcDbEntity
  8
NoLayerName_001
  6
Continuous
 62
     6
370
    50
100
AcDbCircle
 10
237.9230910044446
 20
204.7728390790557
 30
0.0
 40
0.4
100
AcDbArc
 50
89.9999999999999
 51
191.3311587474024
  0
LINE
  5
1E1
330
1F
100
AcDbEntity
  8
NoLayerName_001
  6
Continuous
 62
    60
370
    50
100
AcDbLine
 10
244.734985062451
 20
232.1728390790557
 30
0.0
 11
244.734985062451
 21
198.1728390790558
 31
0.0
  0
ARC
  5
1E2
330
1F
100
AcDbEntity
  8
NoLayerName_001
  6
Continuous
 62
    60
370
    50
100
AcDbCircle
 10
242.734985062451
 20
198.1728390790558
 30
0.0
 40
2.0
100
AcDbArc
 50
269.9999999999999
 51
0.0
  0
LINE
  5
1E3
330
1F
100
AcDbEntity
  8
NoLayerName_002
  6
Continuous
 62
     7
370
    50
100
AcDbLine
 10
220.9171472678534
 20
224.4508739906748
 30
0.0
 11
220.9171472678534
 21
229.8948041674366
 31
0.0
  0
LINE
  5
1E4
330
1F
100
AcDbEntity
  8
NoLayerName_002
  6
Continuous
 62
     7
370
    50
100
AcDbLine
 10
220.9171472678535
 20
224.4508739906745
 30
0.0
 11
219.484985062451
 21
225.9506070630099
 31
0.0
  0
LINE
  5
1E5
330
1F
100
AcDbEntity
  8
NoLayerName_002
  6
Continuous
 62
     7
370
    50
100
AcDbLine
 10
220.9171472678535
 20
224.4508739906745
 30
0.0
 11
210.5528228570486
 21
224.4508739906745
 31
0.0
  0
LINE
  5
1E6
330
1F
100
AcDbEntity
  8
NoLayerName_004
  6
Continuous
 62
    60
370
    50
100
AcDbLine
 10
219.034985062451
 20
228.3728390791014
 30
0.0
 11
212.4349850624509
 21
228.3728390791014
 31
0.0
  0
LINE
  5
1E7
330
1F
100
AcDbEntity
  8
NoLayerName_004
  6
Continuous
 62
    60
370
    50
100
AcDbLine
 10
219.034985062451
 20
225.9728390791014
 30
0.0
 11
212.4349850624509
 21
225.9728390791014
 31
0.0
  0
LINE
  5
1E8
330
1F
100
AcDbEntity
  8
NoLayerName_004
  6
Continuous
 62
    60
370
    50
100
AcDbLine
 10
215.734985062451
 20
227.9975614041281
 30
0.0
 11
215.734985062451
 21
226.3481167540746
 31
0.0
  0
ELLIPSE
  5
1E9
330
1F
100
AcDbEntity
  8
NoLayerName_004
  6
Continuous
 62
    60
370
    50
100
AcDbEllipse
 10
213.984985062451
 20
227.9975614041281
 30
0.0
 11
1.75
 21
0.0
 31
0.0
210
0.0
220
0.0
230
1.0
 40
0.2144443856990068
 41
0.0
 42
3.141592653589793
  0
LINE
  5
1EA
330
1F
100
AcDbEntity
  8
NoLayerName_002
  6
Continuous
 62
     7
370
    50
100
AcDbLine
 10
211.984985062451
 20
228.2650710951013
 30
0.0
 11
212.2349850624509
 21
228.1928390790556
 31
0.0
  0
LINE
  5
1EB
330
1F
100
AcDbEntity
  8
NoLayerName_002
  6
Continuous
 62
     7
370
    50
100
AcDbLine
 10
211.984985062451
 20
226.0806070630098
 30
0.0
 11
212.2349850624509
 21
226.1528390790555
 31
0.0
  0
LINE
  5
1EC
330
1F
100
AcDbEntity
  8
NoLayerName_002
  6
Continuous
 62
     7
370
    50
100
AcDbLine
 10
212.234985062451
 20
226.1528390790556
 30
0.0
 11
212.234985062451
 21
228.1928390790555
 31
0.0
  0
LINE
  5
1ED
330
1F
100
AcDbEntity
  8
NoLayerName_002
  6
Continuous
 62
     7
370
    50
100
AcDbLine
 10
219.484985062451
 20
228.2650710951013
 30
0.0
 11
219.234985062451
 21
228.1928390790556
 31
0.0
  0
LINE
  5
1EE
330
1F
100
AcDbEntity
  8
NoLayerName_002
  6
Continuous
 62
     7
370
    50
100
AcDbLine
 10
219.484985062451
 20
226.0806070630098
 30
0.0
 11
219.234985062451
 21
226.1528390790555
 31
0.0
  0
LINE
  5
1EF
330
1F
100
AcDbEntity
  8
NoLayerName_002
  6
Continuous
 62
     7
370
    50
100
AcDbLine
 10
219.234985062451
 20
226.1528390790556
 30
0.0
 11
219.234985062451
 21
228.1928390790557
 31
0.0
  0
LINE
  5
1F0
330
1F
100
AcDbEntity
  8
NoLayerName_002
  6
Continuous
 62
     7
370
    50
100
AcDbLine
 10
219.484985062451
 20
228.3950710951014
 30
0.0
 11
211.984985062451
 21
228.3950710951014
 31
0.0
  0
LINE
  5
1F1
330
1F
100
AcDbEntity
  8
NoLayerName_002
  6
Continuous
 62
     7
370
    50
100
AcDbLine
 10
219.484985062451
 20
225.95060706301
 30
0.0
 11
211.984985062451
 21
225.95060706301
 31
0.0
  0
LINE
  5
1F2
330
1F
100
AcDbEntity
  8
NoLayerName_002
  6
Continuous
 62
     7
370
    50
100
AcDbLine
 10
211.984985062451
 20
228.3950710951014
 30
0.0
 11
211.984985062451
 21
225.95060706301
 31
0.0
  0
LINE
  5
1F3
330
1F
100
AcDbEntity
  8
NoLayerName_002
  6
Continuous
 62
     7
370
    50
100
AcDbLine
 10
219.484985062451
 20
225.95060706301
 30
0.0
 11
219.484985062451
 21
228.3950710951013
 31
0.0
  0
LINE
  5
1F4
330
1F
100
AcDbEntity
  8
NoLayerName_002
  6
Continuous
 62
     7
370
    50
100
AcDbLine
 10
220.9171472678534
 20
229.8948041674366
 30
0.0
 11
210.5528228570486
 21
229.8948041674366
 31
0.0
  0
LINE
  5
1F5
330
1F
100
AcDbEntity
  8
NoLayerName_002
  6
Continuous
 62
     7
370
    50
100
AcDbLine
 10
210.5528228570486
 20
229.8948041674366
 30
0.0
 11
210.5528228570486
 21
224.4508739906746
 31
0.0
  0
LINE
  5
1F6
330
1F
100
AcDbEntity
  8
NoLayerName_002
  6
Continuous
 62
     7
370
    50
100
AcDbLine
 10
210.5528228570486
 20
224.4508739906745
 30
0.0
 11
211.9849850624509
 21
225.9506070630098
 31
0.0
  0
LINE
  5
1F7
330
1F
100
AcDbEntity
  8
NoLayerName_002
  6
Continuous
 62
     7
370
    50
100
AcDbLine
 10
211.984985062451
 20
228.3950710951014
 30
0.0
 11
210.5528228570486
 21
229.8948041674367
 31
0.0
  0
LINE
  5
1F8
330
1F
100
AcDbEntity
  8
NoLayerName_002
  6
Continuous
 62
     7
370
    50
100
AcDbLine
 10
220.9171472678534
 20
229.8948041674366
 30
0.0
 11
219.4849850624509
 21
228.3950710951013
 31
0.0
  0
LINE
  5
1F9
330
1F
100
AcDbEntity
  8
NoLayerName_006
  6
Continuous
 62
    60
370
    50
100
AcDbLine
 10
212.234985062451
 20
213.6728390790558
 30
0.0
 11
212.234985062451
 21
196.1728390790557
 31
0.0
  0
LINE
  5
1FA
330
1F
100
AcDbEntity
  8
NoLayerName_006
  6
Continuous
 62
    60
370
    50
100
AcDbLine
 10
211.034985062451
 20
196.1728390790558
 30
0.0
 11
210.234985062451
 21
202.3733465731858
 31
0.0
  0
LINE
  5
1FB
330
1F
100
AcDbEntity
  8
NoLayerName_006
  6
Continuous
 62
    60
370
    50
100
AcDbLine
 10
185.4349850624511
 20
196.1728390790558
 30
0.0
 11
186.2349850624511
 21
202.3733465731858
 31
0.0
  0
ARC
  5
1FC
330
1F
100
AcDbEntity
  8
NoLayerName_006
  6
Continuous
 62
    60
370
    50
100
AcDbCircle
 10
198.234985062451
 20
213.6728390790558
 30
0.0
 40
10.5
100
AcDbArc
 50
342.0302461366283
 51
197.9697538633717
  0
ARC
  5
1FD
330
1F
100
AcDbEntity
  8
NoLayerName_006
  6
Continuous
 62
    60
370
    50
100
AcDbCircle
 10
198.234985062451
 20
213.6728390790558
 30
0.0
 40
11.5
100
AcDbArc
 50
342.0302461366284
 51
197.9697538633717
  0
ARC
  5
1FE
330
1F
100
AcDbEntity
  8
NoLayerName_006
  6
Continuous
 62
    60
370
    50
100
AcDbCircle
 10
198.234985062451
 20
213.6728390790558
 30
0.0
 40
8.7
100
AcDbArc
 50
342.0302461366284
 51
197.9697538633717
  0
LINE
  5
1FF
330
1F
100
AcDbEntity
  8
NoLayerName_006
  6
Continuous
 62
    60
370
    50
100
AcDbLine
 10
187.8426802170377
 20
215.1728390790558
 30
0.0
 11
186.7594676449225
 21
214.4228390790558
 31
0.0
  0
LINE
  5
200
330
1F
100
AcDbEntity
  8
NoLayerName_006
  6
Continuous
 62
    60
370
    50
100
AcDbLine
 10
187.8426802170377
 20
212.1728390790558
 30
0.0
 11
186.7594676449225
 21
212.9228390790558
 31
0.0
  0
LINE
  5
201
330
1F
100
AcDbEntity
  8
NoLayerName_006
  6
Continuous
 62
    60
370
    50
100
AcDbLine
 10
199.734985062451
 20
224.065143924469
 30
0.0
 11
198.984985062451
 21
225.1483564965843
 31
0.0
  0
LINE
  5
202
330
1F
100
AcDbEntity
  8
NoLayerName_006
  6
Continuous
 62
    60
370
    50
100
AcDbLine
 10
196.734985062451
 20
224.065143924469
 30
0.0
 11
197.484985062451
 21
225.1483564965843
 31
0.0
  0
LINE
  5
203
330
1F
100
AcDbEntity
  8
NoLayerName_006
  6
Continuous
 62
    60
370
    50
100
AcDbLine
 10
208.6272899078642
 20
212.1728390790558
 30
0.0
 11
209.7105024799795
 21
212.9228390790558
 31
0.0
  0
LINE
  5
204
330
1F
100
AcDbEntity
  8
NoLayerName_006
  6
Continuous
 62
    60
370
    50
100
AcDbLine
 10
208.6272899078642
 20
215.1728390790558
 30
0.0
 11
209.7105024799795
 21
214.4228390790558
 31
0.0
  0
ARC
  5
205
330
1F
100
AcDbEntity
  8
NoLayerName_006
  6
Continuous
 62
    60
370
    50
100
AcDbCircle
 10
178.734985062451
 20
207.3482837587188
 30
0.0
 40
9.0
100
AcDbArc
 50
326.4426902380792
 51
17.96975386337152
  0
ARC
  5
206
330
1F
100
AcDbEntity
  8
NoLayerName_006
  6
Continuous
 62
    60
370
    50
100
AcDbCircle
 10
217.734985062451
 20
207.3482837587188
 30
0.0
 40
9.0
100
AcDbArc
 50
162.0302461366285
 51
213.5573097619209
  0
LINE
  5
207
330
1F
100
AcDbEntity
  8
NoLayerName_006
  6
Continuous
 62
    60
370
    50
100
AcDbLine
 10
187.4193172032399
 20
204.9855786843474
 30
0.0
 11
188.5386246308371
 21
205.3763174270658
 31
0.0
  0
LINE
  5
208
330
1F
100
AcDbEntity
  8
NoLayerName_006
  6
Continuous
 62
    60
370
    50
100
AcDbLine
 10
186.9062869882514
 20
203.5760397531684
 30
0.0
 11
187.5125642008601
 21
202.557239564708
 31
0.0
  0
ARC
  5
209
330
1F
100
AcDbEntity
  8
NoLayerName_006
  6
Continuous
 62
    60
370
    50
100
AcDbCircle
 10
178.734985062451
 20
207.3482837587188
 30
0.0
 40
11.8
100
AcDbArc
 50
330.0000000000002
 51
17.96975386337174
  0
ARC
  5
20A
330
1F
100
AcDbEntity
  8
NoLayerName_006
  6
Continuous
 62
    60
370
    50
100
AcDbCircle
 10
178.734985062451
 20
207.3482837587188
 30
0.0
 40
10.0
100
AcDbArc
 50
330.0
 51
17.96975386337177
  0
ARC
  5
20B
330
1F
100
AcDbEntity
  8
NoLayerName_006
  6
Continuous
 62
    60
370
    50
100
AcDbCircle
 10
188.1746619637014
 20
201.8982837587188
 30
0.0
 40
0.8999999999999907
100
AcDbArc
 50
150.0000000000007
 51
330.0000000000005
  0
LINE
  5
20C
330
1F
100
AcDbEntity
  8
NoLayerName_006
  6
Continuous
 62
    60
370
    50
100
AcDbLine
 10
209.050652921662
 20
204.9855786843474
 30
0.0
 11
207.9313454940648
 21
205.3763174270658
 31
0.0
  0
LINE
  5
20D
330
1F
100
AcDbEntity
  8
NoLayerName_006
  6
Continuous
 62
    60
370
    50
100
AcDbLine
 10
209.5636831366506
 20
203.5760397531685
 30
0.0
 11
208.9574059240419
 21
202.5572395647081
 31
0.0
  0
ARC
  5
20E
330
1F
100
AcDbEntity
  8
NoLayerName_006
  6
Continuous
 62
    60
370
    50
100
AcDbCircle
 10
217.734985062451
 20
207.3482837587188
 30
0.0
 40
11.8
100
AcDbArc
 50
162.0302461366283
 51
210.0
  0
ARC
  5
20F
330
1F
100
AcDbEntity
  8
NoLayerName_006
  6
Continuous
 62
    60
370
    50
100
AcDbCircle
 10
217.734985062451
 20
207.3482837587188
 30
0.0
 40
10.0
100
AcDbArc
 50
162.0302461366283
 51
210.0000000000001
  0
ARC
  5
210
330
1F
100
AcDbEntity
  8
NoLayerName_006
  6
Continuous
 62
    60
370
    50
100
AcDbCircle
 10
208.2953081612006
 20
201.8982837587189
 30
0.0
 40
0.8999999999999907
100
AcDbArc
 50
209.9999999999996
 51
29.99999999999935
  0
ARC
  5
211
330
1F
100
AcDbEntity
  8
NoLayerName_001
  6
Continuous
 62
    60
370
    50
100
AcDbCircle
 10
183.734985062451
 20
198.1728390790558
 30
0.0
 40
2.0
100
AcDbArc
 50
180.0
 51
270.0
  0
LINE
  5
212
330
1F
100
AcDbEntity
  8
NoLayerName_001
  6
Continuous
 62
    60
370
    50
100
AcDbLine
 10
181.734985062451
 20
232.1728390790557
 30
0.0
 11
181.7349850624509
 21
198.1728390790557
 31
0.0
  0
LINE
  5
213
330
1F
100
AcDbEntity
  8
NoLayerName_006
  6
Continuous
 62
    60
370
    50
100
AcDbLine
 10
184.234985062451
 20
213.6728390790558
 30
0.0
 11
184.234985062451
 21
196.1728390790557
 31
0.0
  0
ELLIPSE
  5
214
330
1F
100
AcDbEntity
  8
NoLayerName_004
  6
Continuous
 62
    60
370
    50
100
AcDbEllipse
 10
217.484985062451
 20
227.9975614041281
 30
0.0
 11
-1.75
 21
0.0
 31
0.0
210
0.0
220
0.0
230
1.0
 40
0.2144443856990068
 41
3.141592653589793
 42
6.283185307179586
  0
ELLIPSE
  5
215
330
1F
100
AcDbEntity
  8
NoLayerName_004
  6
Continuous
 62
    60
370
    50
100
AcDbEllipse
 10
213.984985062451
 20
226.3481167540746
 30
0.0
 11
1.75
 21
0.0
 31
0.0
210
0.0
220
0.0
230
1.0
 40
0.2144443856990068
 41
3.141592653589793
 42
6.283185307179586
  0
ELLIPSE
  5
216
330
1F
100
AcDbEntity
  8
NoLayerName_004
  6
Continuous
 62
    60
370
    50
100
AcDbEllipse
 10
217.484985062451
 20
226.3481167540746
 30
0.0
 11
-1.75
 21
0.0
 31
0.0
210
0.0
220
0.0
230
1.0
 40
0.2144443856990068
 41
0.0
 42
3.141592653589793
  0
LINE
  5
217
330
1F
100
AcDbEntity
  8
NoLayerName_004
  6
Continuous
 62
    60
370
    50
100
AcDbLine
 10
212.4349850624509
 20
228.3728390791014
 30
0.0
 11
212.234985062451
 21
228.1728390791014
 31
0.0
  0
LINE
  5
218
330
1F
100
AcDbEntity
  8
NoLayerName_004
  6
Continuous
 62
    60
370
    50
100
AcDbLine
 10
212.234985062451
 20
226.1728390791015
 30
0.0
 11
212.4349850624509
 21
225.9728390791015
 31
0.0
  0
LINE
  5
219
330
1F
100
AcDbEntity
  8
NoLayerName_004
  6
Continuous
 62
    60
370
    50
100
AcDbLine
 10
219.234985062451
 20
226.1728390791015
 30
0.0
 11
219.034985062451
 21
225.9728390791015
 31
0.0
  0
LINE
  5
21A
330
1F
100
AcDbEntity
  8
NoLayerName_004
  6
Continuous
 62
    60
370
    50
100
AcDbLine
 10
219.234985062451
 20
228.1728390791015
 30
0.0
 11
219.034985062451
 21
228.3728390791015
 31
0.0
  0
LINE
  5
21B
330
1F
100
AcDbEntity
  8
NoLayerName_002
  6
Continuous
 62
     7
370
    50
100
AcDbLine
 10
219.2149850624969
 20
228.1928390790555
 30
0.0
 11
219.2349850624512
 21
228.1928390790555
 31
0.0
  0
LINE
  5
21C
330
1F
100
AcDbEntity
  8
NoLayerName_001
  6
Continuous
 62
    60
370
    50
100
AcDbLine
 10
180.734985062451
 20
229.1728390790558
 30
0.0
 11
179.734985062451
 21
228.6728390790558
 31
0.0
  0
LINE
  5
21D
330
1F
100
AcDbEntity
  8
NoLayerName_001
  6
Continuous
 62
    60
370
    50
100
AcDbLine
 10
179.734985062451
 20
228.6728390790558
 30
0.0
 11
180.734985062451
 21
228.1728390790558
 31
0.0
  0
LINE
  5
21E
330
1F
100
AcDbEntity
  8
NoLayerName_001
  6
Continuous
 62
    60
370
    50
100
AcDbLine
 10
180.734985062451
 20
199.1728390790558
 30
0.0
 11
179.734985062451
 21
198.6728390790558
 31
0.0
  0
LINE
  5
21F
330
1F
100
AcDbEntity
  8
NoLayerName_001
  6
Continuous
 62
    60
370
    50
100
AcDbLine
 10
179.734985062451
 20
198.6728390790558
 30
0.0
 11
180.734985062451
 21
198.1728390790558
 31
0.0
  0
LINE
  5
220
330
1F
100
AcDbEntity
  8
NoLayerName_001
  6
Continuous
 62
    60
370
    50
100
AcDbLine
 10
181.734985062451
 20
198.1728390790558
 30
0.0
 11
180.734985062451
 21
198.1728390790558
 31
0.0
  0
LINE
  5
221
330
1F
100
AcDbEntity
  8
NoLayerName_001
  6
Continuous
 62
    60
370
    50
100
AcDbLine
 10
180.734985062451
 20
232.1728390790557
 30
0.0
 11
180.734985062451
 21
229.1728390790557
 31
0.0
  0
LINE
  5
222
330
1F
100
AcDbEntity
  8
NoLayerName_001
  6
Continuous
 62
    60
370
    50
100
AcDbLine
 10
180.734985062451
 20
217.1728390790558
 30
0.0
 11
181.734985062451
 21
210.1728390790558
 31
0.0
  0
LINE
  5
223
330
1F
100
AcDbEntity
  8
NoLayerName_001
  6
Continuous
 62
    60
370
    50
100
AcDbLine
 10
181.734985062451
 20
219.1728390790558
 30
0.0
 11
178.734985062451
 21
219.1728390790558
 31
0.0
  0
LINE
  5
224
330
1F
100
AcDbEntity
  8
NoLayerName_001
  6
Continuous
 62
    60
370
    50
100
AcDbLine
 10
180.734985062451
 20
217.1728390790558
 30
0.0
 11
178.734985062451
 21
219.1728390790558
 31
0.0
  0
LINE
  5
225
330
1F
100
AcDbEntity
  8
NoLayerName_001
  6
Continuous
 62
    60
370
    50
100
AcDbLine
 10
180.734985062451
 20
219.1728390790558
 30
0.0
 11
180.734985062451
 21
228.1728390790557
 31
0.0
  0
LINE
  5
226
330
1F
100
AcDbEntity
  8
NoLayerName_002
  6
Continuous
 62
     7
370
    50
100
AcDbLine
 10
219.1427530464511
 20
228.2650710951013
 30
0.0
 11
219.484985062451
 21
228.2650710951013
 31
0.0
  0
LINE
  5
227
330
1F
100
AcDbEntity
  8
NoLayerName_002
  6
Continuous
 62
     7
370
    50
100
AcDbLine
 10
218.2836997425734
 20
228.3728390791014
 30
0.0
 11
218.2836997425734
 21
228.3950710951014
 31
0.0
  0
LINE
  5
228
330
1F
100
AcDbEntity
  8
NoLayerName_001
  6
Continuous
 62
    60
370
    50
100
AcDbLine
 10
180.734985062451
 20
217.1728390790558
 30
0.0
 11
180.734985062451
 21
199.1728390790557
 31
0.0
  0
LINE
  5
229
330
1F
100
AcDbEntity
  8
NoLayerName_006
  6
Continuous
 62
    60
370
    50
100
AcDbLine
 10
209.734985062451
 20
196.6728390790558
 30
0.0
 11
209.734985062451
 21
198.6728390790557
 31
0.0
  0
LINE
  5
22A
330
1F
100
AcDbEntity
  8
NoLayerName_002
  6
Continuous
 62
     7
370
    50
100
AcDbLine
 10
218.2071488022758
 20
228.3728390791014
 30
0.0
 11
218.2836997425736
 21
228.3950710951014
 31
0.0
  0
LINE
  5
22B
330
1F
100
AcDbEntity
  8
NoLayerName_002
  6
Continuous
 62
     7
370
    50
100
AcDbLine
 10
213.2628213226262
 20
228.3728390791014
 30
0.0
 11
213.1862703823283
 21
228.3950710951014
 31
0.0
  0
LINE
  5
22C
330
1F
100
AcDbEntity
  8
NoLayerName_002
  6
Continuous
 62
     7
370
    50
100
AcDbLine
 10
213.1862703823285
 20
228.3728390791014
 30
0.0
 11
213.1862703823285
 21
228.3950710951014
 31
0.0
  0
LINE
  5
22D
330
1F
100
AcDbEntity
  8
NoLayerName_002
  6
Continuous
 62
     7
370
    50
100
AcDbLine
 10
212.3272170784508
 20
228.2650710951013
 30
0.0
 11
211.9849850624509
 21
228.2650710951013
 31
0.0
  0
LINE
  5
22E
330
1F
100
AcDbEntity
  8
NoLayerName_002
  6
Continuous
 62
     7
370
    50
100
AcDbLine
 10
212.2549850624051
 20
228.1928390790555
 30
0.0
 11
212.2349850624508
 21
228.1928390790555
 31
0.0
  0
LINE
  5
22F
330
1F
100
AcDbEntity
  8
NoLayerName_002
  6
Continuous
 62
     7
370
    50
100
AcDbLine
 10
212.2549850624968
 20
226.1528390790556
 30
0.0
 11
212.2349850624508
 21
226.1528390790556
 31
0.0
  0
LINE
  5
230
330
1F
100
AcDbEntity
  8
NoLayerName_002
  6
Continuous
 62
     7
370
    50
100
AcDbLine
 10
212.3272170785424
 20
226.0806070630098
 30
0.0
 11
211.9849850624509
 21
226.0806070630098
 31
0.0
  0
LINE
  5
231
330
1F
100
AcDbEntity
  8
NoLayerName_002
  6
Continuous
 62
     7
370
    50
100
AcDbLine
 10
213.1862703823285
 20
225.9728390791014
 30
0.0
 11
213.1862703823285
 21
225.95060706301
 31
0.0
  0
LINE
  5
232
330
1F
100
AcDbEntity
  8
NoLayerName_002
  6
Continuous
 62
     7
370
    50
100
AcDbLine
 10
213.262821322941
 20
225.9728390791014
 30
0.0
 11
213.1862703823283
 21
225.9506070630101
 31
0.0
  0
LINE
  5
233
330
1F
100
AcDbEntity
  8
NoLayerName_002
  6
Continuous
 62
     7
370
    50
100
AcDbLine
 10
218.207148801961
 20
225.9728390791014
 30
0.0
 11
218.2836997425736
 21
225.9506070630101
 31
0.0
  0
LINE
  5
234
330
1F
100
AcDbEntity
  8
NoLayerName_002
  6
Continuous
 62
     7
370
    50
100
AcDbLine
 10
218.2836997425734
 20
225.9728390791014
 30
0.0
 11
218.2836997425734
 21
225.95060706301
 31
0.0
  0
LINE
  5
235
330
1F
100
AcDbEntity
  8
NoLayerName_002
  6
Continuous
 62
     7
370
    50
100
AcDbLine
 10
219.1427530463595
 20
226.0806070630098
 30
0.0
 11
219.484985062451
 21
226.0806070630098
 31
0.0
  0
LINE
  5
236
330
1F
100
AcDbEntity
  8
NoLayerName_002
  6
Continuous
 62
     7
370
    50
100
AcDbLine
 10
219.2149850624052
 20
226.1528390790556
 30
0.0
 11
219.2349850624511
 21
226.1528390790556
 31
0.0
  0
LINE
  5
237
330
1F
100
AcDbEntity
  8
NoLayerName_003
  6
CENTER
 62
    30
370
    25
100
AcDbLine
 10
215.734985062451
 20
192.6005491545393
 30
0.0
 11
215.734985062451
 21
226.3481167540747
 31
0.0
  0
ARC
  5
238
330
1F
100
AcDbEntity
  8
NoLayerName_006
  6
Continuous
 62
    60
370
    50
100
AcDbCircle
 10
230.234985062451
 20
210.1728390790556
 30
0.0
 40
8.7
100
AcDbArc
 50
342.0302461366284
 51
197.9697538633717
  0
LINE
  5
239
330
1F
100
AcDbEntity
  8
NoLayerName_006
  6
Continuous
 62
    60
370
    50
100
AcDbLine
 10
209.734985062451
 20
197.1728390790556
 30
0.0
 11
210.8027460076054
 21
197.9728390790556
 31
0.0
  0
LINE
  5
23A
330
1F
100
AcDbEntity
  8
NoLayerName_006
  6
Continuous
 62
    60
370
    50
100
AcDbLine
 10
212.234985062451
 20
213.6728390790558
 30
0.0
 11
212.234985062451
 21
196.1728390790558
 31
0.0
  0
LINE
  5
23B
330
1F
100
AcDbEntity
  8
NoLayerName_001
  6
Continuous
 62
     7
370
    50
100
AcDbLine
 10
238.1349850624509
 20
226.8728390790558
 30
0.0
 11
236.3349850624509
 21
226.8728390790558
 31
0.0
  0
LINE
  5
23C
330
1F
100
AcDbEntity
  8
NoLayerName_001
  6
Continuous
 62
     7
370
    50
100
AcDbLine
 10
235.734985062451
 20
228.2728390790557
 30
0.0
 11
235.734985062451
 21
227.4728390790557
 31
0.0
  0
LINE
  5
23D
330
1F
100
AcDbEntity
  8
NoLayerName_001
  6
Continuous
 62
     7
370
    50
100
AcDbLine
 10
238.734985062451
 20
227.4728390790557
 30
0.0
 11
238.734985062451
 21
228.2728390790558
 31
0.0
  0
ARC
  5
23E
330
1F
100
AcDbEntity
  8
NoLayerName_001
  6
Continuous
 62
     7
370
    50
100
AcDbCircle
 10
236.334985062451
 20
227.4728390790557
 30
0.0
 40
0.6
100
AcDbArc
 50
180.0
 51
270.0
  0
LINE
  5
23F
330
1F
100
AcDbEntity
  8
NoLayerName_001
  6
Continuous
 62
     7
370
    50
100
AcDbLine
 10
238.1349850624509
 20
228.8728390790558
 30
0.0
 11
236.3349850624509
 21
228.8728390790558
 31
0.0
  0
ARC
  5
240
330
1F
100
AcDbEntity
  8
NoLayerName_001
  6
Continuous
 62
     7
370
    50
100
AcDbCircle
 10
236.334985062451
 20
228.2728390790557
 30
0.0
 40
0.6
100
AcDbArc
 50
90.0
 51
180.0
  0
ARC
  5
241
330
1F
100
AcDbEntity
  8
NoLayerName_001
  6
Continuous
 62
     7
370
    50
100
AcDbCircle
 10
238.1349850624509
 20
228.2728390790557
 30
0.0
 40
0.6
100
AcDbArc
 50
0.0
 51
90.0
  0
ARC
  5
242
330
1F
100
AcDbEntity
  8
NoLayerName_001
  6
Continuous
 62
     7
370
    50
100
AcDbCircle
 10
238.1349850624509
 20
227.4728390790557
 30
0.0
 40
0.6
100
AcDbArc
 50
270.0
 51
0.0
  0
LINE
  5
243
330
1F
100
AcDbEntity
  8
NoLayerName_001
  6
Continuous
 62
    60
370
    50
100
AcDbLine
 10
210.7124308196099
 20
198.6728390790558
 30
0.0
 11
185.7575393052923
 21
198.6728390790558
 31
0.0
  0
LINE
  5
244
330
1F
100
AcDbEntity
  8
NoLayerName_001
  6
Continuous
 62
    60
370
    50
100
AcDbLine
 10
189.734985062451
 20
198.6728390790558
 30
0.0
 11
189.734985062451
 21
203.0774524579064
 31
0.0
  0
LINE
  5
245
330
1F
100
AcDbEntity
  8
NoLayerName_006
  6
Continuous
 62
    60
370
    50
100
AcDbLine
 10
189.734985062451
 20
196.6728390790558
 30
0.0
 11
209.734985062451
 21
196.6728390790558
 31
0.0
  0
LINE
  5
246
330
1F
100
AcDbEntity
  8
NoLayerName_001
  6
Continuous
 62
     3
370
    50
100
AcDbLine
 10
189.734985062451
 20
196.6728390790558
 30
0.0
 11
185.5640067595876
 21
197.1728390790557
 31
0.0
  0
LINE
  5
247
330
1F
100
AcDbEntity
  8
NoLayerName_001
  6
Continuous
 62
    60
370
    50
100
AcDbLine
 10
188.234985062451
 20
219.351747424856
 30
0.0
 11
188.234985062451
 21
216.8744011977722
 31
0.0
  0
LINE
  5
248
330
1F
100
AcDbEntity
  8
NoLayerName_001
  6
Continuous
 62
    60
370
    50
100
AcDbLine
 10
187.234985062451
 20
212.5935980119492
 30
0.0
 11
187.234985062451
 21
210.3187371128061
 31
0.0
  0
LINE
  5
249
330
1F
100
AcDbEntity
  8
NoLayerName_001
  6
Continuous
 62
    60
370
    50
100
AcDbLine
 10
187.234985062451
 20
217.0269410453053
 30
0.0
 11
187.234985062451
 21
214.7520801461621
 31
0.0
  0
LINE
  5
24A
330
1F
100
AcDbEntity
  8
NoLayerName_001
  6
Continuous
 62
    60
370
    50
100
AcDbLine
 10
189.734985062451
 20
221.4188057714705
 30
0.0
 11
189.734985062451
 21
219.8372530820247
 31
0.0
  0
LINE
  5
24B
330
1F
100
AcDbEntity
  8
NoLayerName_001
  6
Continuous
 62
    60
370
    50
100
AcDbLine
 10
189.734985062451
 20
211.8181153799566
 30
0.0
 11
189.734985062451
 21
215.5275627781549
 31
0.0
  0
LINE
  5
24C
330
1F
100
AcDbEntity
  8
NoLayerName_001
  6
Continuous
 62
    60
370
    50
100
AcDbLine
 10
188.234985062451
 20
198.6728390790558
 30
0.0
 11
188.234985062451
 21
201.0003076322226
 31
0.0
  0
LINE
  5
24D
330
1F
100
AcDbEntity
  8
NoLayerName_001
  6
Continuous
 62
    60
370
    50
100
AcDbLine
 10
188.234985062451
 20
196.8526530089161
 30
0.0
 11
188.234985062451
 21
196.1728390790557
 31
0.0
  0
LINE
  5
24E
330
1F
100
AcDbEntity
  8
NoLayerName_001
  6
Continuous
 62
    60
370
    50
100
AcDbLine
 10
188.234985062451
 20
205.2703199680429
 30
0.0
 11
188.234985062451
 21
210.4707827579181
 31
0.0
  0
LINE
  5
24F
330
1F
100
AcDbEntity
  8
NoLayerName_001
  6
Continuous
 62
    60
370
    50
100
AcDbLine
 10
186.234985062451
 20
198.6728390790558
 30
0.0
 11
186.234985062451
 21
202.3733465731858
 31
0.0
  0
LINE
  5
250
330
1F
100
AcDbEntity
  8
NoLayerName_001
  6
Continuous
 62
    60
370
    50
100
AcDbLine
 10
186.234985062451
 20
197.0924049153965
 30
0.0
 11
186.234985062451
 21
196.1728390790557
 31
0.0
  0
ARC
  5
251
330
1F
100
AcDbEntity
  8
NoLayerName_006
  6
Continuous
 62
    30
370
    50
100
AcDbCircle
 10
230.234985062451
 20
210.1728390790558
 30
0.0
 40
11.3
100
AcDbArc
 50
0.0
 51
180.0
  0
LINE
  5
252
330
1F
100
AcDbEntity
  8
NoLayerName_001
  6
Continuous
 62
    60
370
    50
100
AcDbLine
 10
242.734985062451
 20
196.1728390790558
 30
0.0
 11
183.734985062451
 21
196.1728390790558
 31
0.0
  0
LINE
  5
253
330
1F
100
AcDbEntity
  8
NoLayerName_001
  6
Continuous
 62
    60
370
    50
100
AcDbLine
 10
244.734985062451
 20
232.1728390790557
 30
0.0
 11
180.734985062451
 21
232.1728390790557
 31
0.0
  0
LINE
  5
254
330
1F
100
AcDbEntity
  8
NoLayerName_006
  6
Continuous
 62
    30
370
    50
100
AcDbLine
 10
241.5349850624509
 20
210.1728390790558
 30
0.0
 11
241.5349850624509
 21
196.1728390790558
 31
0.0
  0
LINE
  5
255
330
1F
100
AcDbEntity
  8
NoLayerName_001
  6
Continuous
 62
     7
370
    50
100
AcDbLine
 10
221.734985062451
 20
198.6728390790558
 30
0.0
 11
221.734985062451
 21
196.6728390790558
 31
0.0
  0
LINE
  5
256
330
1F
100
AcDbEntity
  8
NoLayerName_006
  6
Continuous
 62
    30
370
    50
100
AcDbLine
 10
218.934985062451
 20
210.1728390790558
 30
0.0
 11
218.934985062451
 21
196.1728390790558
 31
0.0
  0
LINE
  5
257
330
1F
100
AcDbEntity
  8
NoLayerName_001
  6
Continuous
 62
     7
370
    50
100
AcDbLine
 10
239.534985062451
 20
196.1728390790558
 30
0.0
 11
238.3127344598828
 21
200.8864952497039
 31
0.0
  0
ARC
  5
258
330
1F
100
AcDbEntity
  8
NoLayerName_006
  6
Continuous
 62
    60
370
    50
100
AcDbCircle
 10
249.734985062451
 20
203.8482837587188
 30
0.0
 40
11.8
100
AcDbArc
 50
162.0302461366283
 51
194.5366372745981
  0
LINE
  5
259
330
1F
100
AcDbEntity
  8
NoLayerName_006
  6
Continuous
 62
    60
370
    50
100
AcDbLine
 10
239.405335109387
 20
196.6728390790558
 30
0.0
 11
221.7349850624509
 21
196.6728390790558
 31
0.0
  0
LINE
  5
25A
330
1F
100
AcDbEntity
  8
NoLayerName_001
  6
Continuous
 62
    60
370
    50
100
AcDbLine
 10
239.234985062451
 20
197.3298005468786
 30
0.0
 11
239.234985062451
 21
196.6728390790558
 31
0.0
  0
LINE
  5
25B
330
1F
100
AcDbEntity
  8
NoLayerName_001
  6
Continuous
 62
    60
370
    50
100
AcDbLine
 10
238.8867352971313
 20
198.6728390790558
 30
0.0
 11
221.7349850624509
 21
198.6728390790558
 31
0.0
  0
LINE
  5
25C
330
1F
100
AcDbEntity
  8
NoLayerName_001
  6
Continuous
 62
     7
370
    50
100
AcDbLine
 10
220.9349850624509
 20
196.1728390790558
 30
0.0
 11
222.1572356650191
 21
200.8864952497039
 31
0.0
  0
ARC
  5
25D
330
1F
100
AcDbEntity
  8
NoLayerName_006
  6
Continuous
 62
    60
370
    50
100
AcDbCircle
 10
210.734985062451
 20
203.8482837587188
 30
0.0
 40
11.8
100
AcDbArc
 50
345.4633627254019
 51
17.96975386337174
  0
LINE
  5
25E
330
1F
100
AcDbEntity
  8
NoLayerName_005
  6
Continuous
 62
    60
370
    50
100
AcDbLine
 10
222.034985062451
 20
296.8674254245891
 30
0.0
 11
223.5349850624509
 21
296.8674254245891
 31
0.0
  0
LINE
  5
25F
330
1F
100
AcDbEntity
  8
NoLayerName_005
  6
Continuous
 62
    60
370
    50
100
AcDbLine
 10
220.0560528743164
 20
298.3674254245891
 30
0.0
 11
223.934985062451
 21
298.3674254245891
 31
0.0
  0
LINE
  5
260
330
1F
100
AcDbEntity
  8
NoLayerName_001
  6
Continuous
 62
    60
370
    50
100
AcDbLine
 10
191.5349850624509
 20
296.8674254245892
 30
0.0
 11
189.734985062451
 21
296.8674254245892
 31
0.0
  0
LINE
  5
261
330
1F
100
AcDbEntity
  8
NoLayerName_001
  6
Continuous
 62
    60
370
    50
100
AcDbLine
 10
189.734985062451
 20
298.3674254245892
 30
0.0
 11
191.934985062451
 21
298.3674254245892
 31
0.0
  0
LINE
  5
262
330
1F
100
AcDbEntity
  8
NoLayerName_001
  6
Continuous
 62
    60
370
    50
100
AcDbLine
 10
205.934985062451
 20
298.3674254245892
 30
0.0
 11
193.5349850624509
 21
298.3674254245892
 31
0.0
  0
LINE
  5
263
330
1F
100
AcDbEntity
  8
NoLayerName_001
  6
Continuous
 62
    60
370
    50
100
AcDbLine
 10
205.5349850624509
 20
296.8674254245892
 30
0.0
 11
193.934985062451
 21
296.8674254245892
 31
0.0
  0
LINE
  5
264
330
1F
100
AcDbEntity
  8
NoLayerName_005
  6
Continuous
 62
    60
370
    50
100
AcDbLine
 10
209.4349850624509
 20
296.8674254245891
 30
0.0
 11
207.934985062451
 21
296.8674254245891
 31
0.0
  0
LINE
  5
265
330
1F
100
AcDbEntity
  8
NoLayerName_005
  6
Continuous
 62
    60
370
    50
100
AcDbLine
 10
211.4139172505855
 20
298.3674254245891
 30
0.0
 11
207.5349850624509
 21
298.3674254245891
 31
0.0
  0
LINE
  5
266
330
1F
100
AcDbEntity
  8
NoLayerName_005
  6
Continuous
 62
    60
370
    50
100
AcDbLine
 10
211.4139172505855
 20
376.3674254245892
 30
0.0
 11
207.5349850624509
 21
376.3674254245892
 31
0.0
  0
LINE
  5
267
330
1F
100
AcDbEntity
  8
NoLayerName_005
  6
Continuous
 62
    60
370
    50
100
AcDbLine
 10
209.4349850624509
 20
377.8674254245892
 30
0.0
 11
207.934985062451
 21
377.8674254245892
 31
0.0
  0
LINE
  5
268
330
1F
100
AcDbEntity
  8
NoLayerName_001
  6
Continuous
 62
    60
370
    50
100
AcDbLine
 10
191.5349850624509
 20
377.8674254245891
 30
0.0
 11
189.734985062451
 21
377.8674254245891
 31
0.0
  0
LINE
  5
269
330
1F
100
AcDbEntity
  8
NoLayerName_001
  6
Continuous
 62
    60
370
    50
100
AcDbLine
 10
205.934985062451
 20
376.3674254245891
 30
0.0
 11
193.5349850624509
 21
376.3674254245891
 31
0.0
  0
LINE
  5
26A
330
1F
100
AcDbEntity
  8
NoLayerName_001
  6
Continuous
 62
    60
370
    50
100
AcDbLine
 10
205.5349850624509
 20
377.8674254245891
 30
0.0
 11
193.934985062451
 21
377.8674254245891
 31
0.0
  0
LINE
  5
26B
330
1F
100
AcDbEntity
  8
NoLayerName_001
  6
Continuous
 62
    60
370
    50
100
AcDbLine
 10
225.5349850624509
 20
376.3674254245891
 30
0.0
 11
236.4449850624511
 21
376.3674254245891
 31
0.0
  0
LINE
  5
26C
330
1F
100
AcDbEntity
  8
NoLayerName_001
  6
Continuous
 62
    60
370
    50
100
AcDbLine
 10
225.934985062451
 20
377.8674254245891
 30
0.0
 11
236.044985062451
 21
377.8674254245891
 31
0.0
  0
LINE
  5
26D
330
1F
100
AcDbEntity
  8
NoLayerName_005
  6
Continuous
 62
    60
370
    50
100
AcDbLine
 10
222.034985062451
 20
377.8674254245892
 30
0.0
 11
223.5349850624509
 21
377.8674254245892
 31
0.0
  0
LINE
  5
26E
330
1F
100
AcDbEntity
  8
NoLayerName_005
  6
Continuous
 62
    60
370
    50
100
AcDbLine
 10
220.0560528743164
 20
376.3674254245892
 30
0.0
 11
223.934985062451
 21
376.3674254245892
 31
0.0
  0
LINE
  5
26F
330
1F
100
AcDbEntity
  8
NoLayerName_001
  6
Continuous
 62
    60
370
    50
100
AcDbLine
 10
187.234985062451
 20
373.3674254245892
 30
0.0
 11
187.234985062451
 21
367.3674254245892
 31
0.0
  0
LINE
  5
270
330
1F
100
AcDbEntity
  8
NoLayerName_001
  6
Continuous
 62
    60
370
    50
100
AcDbLine
 10
189.734985062451
 20
385.3674254245892
 30
0.0
 11
189.734985062451
 21
342.3674254245891
 31
0.0
  0
LINE
  5
271
330
1F
100
AcDbEntity
  8
NoLayerName_001
  6
Continuous
 62
    60
370
    50
100
AcDbLine
 10
241.734985062451
 20
385.3674254245892
 30
0.0
 11
189.734985062451
 21
385.3674254245892
 31
0.0
  0
LINE
  5
272
330
1F
100
AcDbEntity
  8
NoLayerName_001
  6
Continuous
 62
    60
370
    50
100
AcDbLine
 10
189.734985062451
 20
376.3674254245891
 30
0.0
 11
191.934985062451
 21
376.3674254245891
 31
0.0
  0
LINE
  5
273
330
1F
100
AcDbEntity
  8
NoLayerName_001
  6
Continuous
 62
     7
370
    50
100
AcDbLine
 10
236.0349850624509
 20
296.8674254245892
 30
0.0
 11
236.434985062451
 21
298.3674254245892
 31
0.0
  0
LINE
  5
274
330
1F
100
AcDbEntity
  8
NoLayerName_001
  6
Continuous
 62
     7
370
    50
100
AcDbLine
 10
238.434985062451
 20
296.8674254245892
 30
0.0
 11
238.0349850624509
 21
298.3674254245892
 31
0.0
  0
LINE
  5
275
330
1F
100
AcDbEntity
  8
NoLayerName_001
  6
Continuous
 62
    60
370
    50
100
AcDbLine
 10
241.734985062451
 20
298.3674254245892
 30
0.0
 11
238.034985062451
 21
298.3674254245892
 31
0.0
  0
LINE
  5
276
330
1F
100
AcDbEntity
  8
NoLayerName_001
  6
Continuous
 62
    60
370
    50
100
AcDbLine
 10
239.9349850624509
 20
296.8674254245892
 30
0.0
 11
238.434985062451
 21
296.8674254245892
 31
0.0
  0
LINE
  5
277
330
1F
100
AcDbEntity
  8
NoLayerName_001
  6
Continuous
 62
    60
370
    50
100
AcDbLine
 10
225.934985062451
 20
296.8674254245892
 30
0.0
 11
236.0349850624509
 21
296.8674254245892
 31
0.0
  0
LINE
  5
278
330
1F
100
AcDbEntity
  8
NoLayerName_001
  6
Continuous
 62
    60
370
    50
100
AcDbLine
 10
225.5349850624509
 20
298.3674254245892
 30
0.0
 11
236.434985062451
 21
298.3674254245892
 31
0.0
  0
CIRCLE
  5
279
330
1F
100
AcDbEntity
  8
NoLayerName_001
  6
Continuous
 62
     6
370
    50
100
AcDbCircle
 10
228.734985062451
 20
337.3674254245891
 30
0.0
 40
2.5
  0
LINE
  5
27A
330
1F
100
AcDbEntity
  8
NoLayerName_003
  6
CENTER
 62
    30
370
    25
100
AcDbLine
 10
179.6395694147089
 20
337.3674254245891
 30
0.0
 11
245.0819192153079
 21
337.3674254245891
 31
0.0
  0
LINE
  5
27B
330
1F
100
AcDbEntity
  8
NoLayerName_004
  6
Continuous
 62
     7
370
    25
100
AcDbLine
 10
194.4829881152931
 20
336.1674254245891
 30
0.0
 11
188.2349850624509
 21
336.1674254245891
 31
0.0
  0
LINE
  5
27C
330
1F
100
AcDbEntity
  8
NoLayerName_004
  6
Continuous
 62
     7
370
    50
100
AcDbLine
 10
194.2763844481209
 20
336.6121408375843
 30
0.0
 11
194.7063189119092
 21
335.6867047829327
 31
0.0
  0
ELLIPSE
  5
27D
330
1F
100
AcDbEntity
  8
NoLayerName_004
  6
Continuous
 62
     7
370
    50
100
AcDbEllipse
 10
195.990820018116
 20
337.3674254245891
 30
0.0
 11
1.714505518806307E-16
 21
2.80000000000002
 31
0.0
210
0.0
220
0.0
230
1.0
 40
0.5735764363510407
 41
0.0
 42
3.141592653589793
  0
ELLIPSE
  5
27E
330
1F
100
AcDbEntity
  8
NoLayerName_004
  6
Continuous
 62
     7
370
    50
100
AcDbEllipse
 10
194.8112410743399
 20
337.3674254245891
 30
0.0
 11
7.347880794883997E-17
 21
1.19999999999998
 31
0.0
210
0.0
220
0.0
230
1.0
 40
0.5735764363511086
 41
0.8900105576281478
 42
2.251582095961671
  0
LINE
  5
27F
330
1F
100
AcDbEntity
  8
NoLayerName_004
  6
Continuous
 62
     7
370
    25
100
AcDbLine
 10
194.4829881152931
 20
338.5674254245891
 30
0.0
 11
188.2349850624509
 21
338.5674254245891
 31
0.0
  0
LINE
  5
280
330
1F
100
AcDbEntity
  8
NoLayerName_004
  6
Continuous
 62
     7
370
    50
100
AcDbLine
 10
194.2763844481209
 20
338.1227100115941
 30
0.0
 11
194.7063189119092
 21
339.0481460662457
 31
0.0
  0
ELLIPSE
  5
281
330
1F
100
AcDbEntity
  8
NoLayerName_004
  6
Continuous
 62
     7
370
    50
100
AcDbEllipse
 10
196.3184808358315
 20
337.3674254245891
 30
0.0
 11
1.714505518806307E-16
 21
2.80000000000002
 31
0.0
210
0.0
220
0.0
230
1.0
 40
0.5735764363510407
 41
0.0
 42
6.283185307179586
  0
LINE
  5
282
330
1F
100
AcDbEntity
  8
NoLayerName_004
  6
Continuous
 62
     7
370
    50
100
AcDbLine
 10
196.0784808358316
 20
337.7674254245892
 30
0.0
 11
196.0784808358316
 21
338.9674254245892
 31
0.0
  0
LINE
  5
283
330
1F
100
AcDbEntity
  8
NoLayerName_004
  6
Continuous
 62
     7
370
    50
100
AcDbLine
 10
196.5584808358316
 20
338.9674254245892
 30
0.0
 11
196.0784808358316
 21
338.9674254245892
 31
0.0
  0
LINE
  5
284
330
1F
100
AcDbEntity
  8
NoLayerName_004
  6
Continuous
 62
     7
370
    50
100
AcDbLine
 10
196.5584808358316
 20
337.7674254245892
 30
0.0
 11
196.5584808358316
 21
338.9674254245892
 31
0.0
  0
LINE
  5
285
330
1F
100
AcDbEntity
  8
NoLayerName_004
  6
Continuous
 62
     7
370
    50
100
AcDbLine
 10
197.1184808358315
 20
337.7674254245892
 30
0.0
 11
196.5584808358315
 21
337.7674254245892
 31
0.0
  0
LINE
  5
286
330
1F
100
AcDbEntity
  8
NoLayerName_004
  6
Continuous
 62
     7
370
    50
100
AcDbLine
 10
197.1184808358315
 20
337.7674254245892
 30
0.0
 11
197.1184808358315
 21
336.9674254245892
 31
0.0
  0
LINE
  5
287
330
1F
100
AcDbEntity
  8
NoLayerName_004
  6
Continuous
 62
     7
370
    50
100
AcDbLine
 10
197.1184808358315
 20
336.9674254245892
 30
0.0
 11
196.5584808358315
 21
336.9674254245892
 31
0.0
  0
LINE
  5
288
330
1F
100
AcDbEntity
  8
NoLayerName_004
  6
Continuous
 62
     7
370
    50
100
AcDbLine
 10
196.5584808358316
 20
335.7674254245892
 30
0.0
 11
196.5584808358316
 21
336.9674254245892
 31
0.0
  0
LINE
  5
289
330
1F
100
AcDbEntity
  8
NoLayerName_004
  6
Continuous
 62
     7
370
    50
100
AcDbLine
 10
196.5584808358316
 20
335.7674254245892
 30
0.0
 11
196.0784808358316
 21
335.7674254245892
 31
0.0
  0
LINE
  5
28A
330
1F
100
AcDbEntity
  8
NoLayerName_004
  6
Continuous
 62
     7
370
    50
100
AcDbLine
 10
196.0784808358316
 20
335.7674254245892
 30
0.0
 11
196.0784808358316
 21
336.9674254245892
 31
0.0
  0
LINE
  5
28B
330
1F
100
AcDbEntity
  8
NoLayerName_004
  6
Continuous
 62
     7
370
    50
100
AcDbLine
 10
196.0784808358316
 20
336.9674254245892
 30
0.0
 11
195.5184808358316
 21
336.9674254245892
 31
0.0
  0
LINE
  5
28C
330
1F
100
AcDbEntity
  8
NoLayerName_004
  6
Continuous
 62
     7
370
    50
100
AcDbLine
 10
195.5184808358316
 20
337.7674254245892
 30
0.0
 11
195.5184808358316
 21
336.9674254245892
 31
0.0
  0
LINE
  5
28D
330
1F
100
AcDbEntity
  8
NoLayerName_004
  6
Continuous
 62
     7
370
    50
100
AcDbLine
 10
196.0784808358316
 20
337.7674254245892
 30
0.0
 11
195.5184808358316
 21
337.7674254245892
 31
0.0
  0
LINE
  5
28E
330
1F
100
AcDbEntity
  8
NoLayerName_004
  6
Continuous
 62
     7
370
    50
100
AcDbLine
 10
188.234985062451
 20
336.0074254245892
 30
0.0
 11
194.5573201167971
 21
336.0074254245892
 31
0.0
  0
LINE
  5
28F
330
1F
100
AcDbEntity
  8
NoLayerName_004
  6
Continuous
 62
     7
370
    50
100
AcDbLine
 10
188.234985062451
 20
338.7274254245892
 30
0.0
 11
194.5573201167971
 21
338.7274254245892
 31
0.0
  0
LINE
  5
290
330
1F
100
AcDbEntity
  8
NoLayerName_001
  6
Continuous
 62
     7
370
    50
100
AcDbLine
 10
130.4091969721376
 20
338.7274254245892
 30
0.0
 11
124.4427727497513
 21
337.3674254245891
 31
0.0
  0
LINE
  5
291
330
1F
100
AcDbEntity
  8
NoLayerName_001
  6
Continuous
 62
     7
370
    50
100
AcDbLine
 10
130.4091969721372
 20
336.0074254245892
 30
0.0
 11
124.4427727497513
 21
337.3674254245891
 31
0.0
  0
LINE
  5
292
330
1F
100
AcDbEntity
  8
NoLayerName_004
  6
Continuous
 62
     7
370
    25
100
AcDbLine
 10
130.5427727497512
 20
336.1674254245891
 30
0.0
 11
129.7072647106806
 21
336.1674254245891
 31
0.0
  0
LINE
  5
293
330
1F
100
AcDbEntity
  8
NoLayerName_004
  6
Continuous
 62
     7
370
    25
100
AcDbLine
 10
130.5427727497512
 20
338.5674254245891
 30
0.0
 11
129.7072647106801
 21
338.5674254245891
 31
0.0
  0
ARC
  5
294
330
1F
100
AcDbEntity
  8
NoLayerName_004
  6
Continuous
 62
     7
370
    50
100
AcDbCircle
 10
123.8060835297089
 20
336.0714292239314
 30
0.0
 40
4.148799746929965
100
AcDbArc
 50
6.955279387823006
 51
28.532407376275
  0
ARC
  5
295
330
1F
100
AcDbEntity
  8
NoLayerName_004
  6
Continuous
 62
     7
370
    50
100
AcDbCircle
 10
123.8060835297089
 20
336.0714292239314
 30
0.0
 40
5.148799746929965
100
AcDbArc
 50
2.995903386776288
 51
25.42831438099864
  0
ARC
  5
296
330
1F
100
AcDbEntity
  8
NoLayerName_004
  6
Continuous
 62
     7
370
    50
100
AcDbCircle
 10
123.8060835297089
 20
336.0714292239314
 30
0.0
 40
6.148799746929965
100
AcDbArc
 50
0.3688405612162228
 51
23.35548922219357
  0
LINE
  5
297
330
1F
100
AcDbEntity
  8
NoLayerName_001
  6
Continuous
 62
    60
370
    50
100
AcDbLine
 10
191.734985062451
 20
332.8674254245891
 30
0.0
 11
191.734985062451
 21
336.0074254245892
 31
0.0
  0
LINE
  5
298
330
1F
100
AcDbEntity
  8
NoLayerName_001
  6
Continuous
 62
    60
370
    50
100
AcDbLine
 10
191.734985062451
 20
341.8674254245891
 30
0.0
 11
191.734985062451
 21
338.7274254245892
 31
0.0
  0
ARC
  5
299
330
1F
100
AcDbEntity
  8
NoLayerName_001
  6
Continuous
 62
     6
370
    50
100
AcDbCircle
 10
199.734985062451
 20
337.3674254245891
 30
0.0
 40
2.5
100
AcDbArc
 50
215.2911247699252
 51
144.7088689286828
  0
LINE
  5
29A
330
1F
100
AcDbEntity
  8
NoLayerName_005
  6
Continuous
 62
     7
370
    50
100
AcDbLine
 10
223.2349850624507
 20
326.3674254245891
 30
0.0
 11
224.9349850624507
 21
326.3674254245891
 31
0.0
  0
LINE
  5
29B
330
1F
100
AcDbEntity
  8
NoLayerName_005
  6
Continuous
 62
    30
370
    50
100
AcDbLine
 10
222.9349850624507
 20
325.3674254245891
 30
0.0
 11
224.9349850624507
 21
325.3674254245891
 31
0.0
  0
LINE
  5
29C
330
1F
100
AcDbEntity
  8
NoLayerName_005
  6
Continuous
 62
    30
370
    50
100
AcDbLine
 10
219.5349850624508
 20
325.3674254245891
 30
0.0
 11
217.5349850624507
 21
325.3674254245891
 31
0.0
  0
LINE
  5
29D
330
1F
100
AcDbEntity
  8
NoLayerName_005
  6
Continuous
 62
     7
370
    50
100
AcDbLine
 10
219.2349850624507
 20
326.3674254245891
 30
0.0
 11
217.5349850624508
 21
326.3674254245891
 31
0.0
  0
LINE
  5
29E
330
1F
100
AcDbEntity
  8
NoLayerName_005
  6
Continuous
 62
     7
370
    50
100
AcDbLine
 10
219.2349850624507
 20
316.3674254245891
 30
0.0
 11
217.5349850624508
 21
316.3674254245891
 31
0.0
  0
LINE
  5
29F
330
1F
100
AcDbEntity
  8
NoLayerName_005
  6
Continuous
 62
    30
370
    50
100
AcDbLine
 10
219.2349850624507
 20
315.8674254245891
 30
0.0
 11
217.5349850624508
 21
315.8674254245891
 31
0.0
  0
LINE
  5
2A0
330
1F
100
AcDbEntity
  8
NoLayerName_005
  6
Continuous
 62
    30
370
    50
100
AcDbLine
 10
223.2349850624507
 20
315.8674254245891
 30
0.0
 11
224.9349850624508
 21
315.8674254245891
 31
0.0
  0
LINE
  5
2A1
330
1F
100
AcDbEntity
  8
NoLayerName_005
  6
Continuous
 62
     7
370
    50
100
AcDbLine
 10
223.2349850624507
 20
316.3674254245891
 30
0.0
 11
224.9349850624507
 21
316.3674254245891
 31
0.0
  0
LINE
  5
2A2
330
1F
100
AcDbEntity
  8
NoLayerName_005
  6
Continuous
 62
    30
370
    50
100
AcDbLine
 10
222.9349850624507
 20
317.3674254245891
 30
0.0
 11
224.9349850624507
 21
317.3674254245891
 31
0.0
  0
LINE
  5
2A3
330
1F
100
AcDbEntity
  8
NoLayerName_005
  6
Continuous
 62
    30
370
    50
100
AcDbLine
 10
219.5349850624508
 20
317.3674254245891
 30
0.0
 11
217.5349850624507
 21
317.3674254245891
 31
0.0
  0
LINE
  5
2A4
330
1F
100
AcDbEntity
  8
NoLayerName_005
  6
Continuous
 62
    30
370
    50
100
AcDbLine
 10
208.5349850624512
 20
325.3674254245891
 30
0.0
 11
206.5349850624511
 21
325.3674254245891
 31
0.0
  0
LINE
  5
2A5
330
1F
100
AcDbEntity
  8
NoLayerName_005
  6
Continuous
 62
     7
370
    50
100
AcDbLine
 10
208.234985062451
 20
326.3674254245891
 30
0.0
 11
206.5349850624511
 21
326.3674254245891
 31
0.0
  0
LINE
  5
2A6
330
1F
100
AcDbEntity
  8
NoLayerName_005
  6
Continuous
 62
     7
370
    50
100
AcDbLine
 10
208.234985062451
 20
316.3674254245891
 30
0.0
 11
206.5349850624511
 21
316.3674254245891
 31
0.0
  0
LINE
  5
2A7
330
1F
100
AcDbEntity
  8
NoLayerName_005
  6
Continuous
 62
    30
370
    50
100
AcDbLine
 10
208.234985062451
 20
315.8674254245891
 30
0.0
 11
206.5349850624511
 21
315.8674254245891
 31
0.0
  0
LINE
  5
2A8
330
1F
100
AcDbEntity
  8
NoLayerName_005
  6
Continuous
 62
    30
370
    50
100
AcDbLine
 10
208.5349850624512
 20
317.3674254245891
 30
0.0
 11
206.5349850624511
 21
317.3674254245891
 31
0.0
  0
LINE
  5
2A9
330
1F
100
AcDbEntity
  8
NoLayerName_005
  6
Continuous
 62
    30
370
    50
100
AcDbLine
 10
213.9349850624511
 20
315.8674254245891
 30
0.0
 11
212.234985062451
 21
315.8674254245891
 31
0.0
  0
LINE
  5
2AA
330
1F
100
AcDbEntity
  8
NoLayerName_005
  6
Continuous
 62
     7
370
    50
100
AcDbLine
 10
213.9349850624511
 20
316.3674254245891
 30
0.0
 11
212.234985062451
 21
316.3674254245891
 31
0.0
  0
LINE
  5
2AB
330
1F
100
AcDbEntity
  8
NoLayerName_005
  6
Continuous
 62
    30
370
    50
100
AcDbLine
 10
213.9349850624511
 20
317.3674254245891
 30
0.0
 11
211.9349850624511
 21
317.3674254245891
 31
0.0
  0
LINE
  5
2AC
330
1F
100
AcDbEntity
  8
NoLayerName_005
  6
Continuous
 62
    30
370
    50
100
AcDbLine
 10
213.9349850624511
 20
325.3674254245891
 30
0.0
 11
211.9349850624511
 21
325.3674254245891
 31
0.0
  0
LINE
  5
2AD
330
1F
100
AcDbEntity
  8
NoLayerName_005
  6
Continuous
 62
     7
370
    50
100
AcDbLine
 10
213.9349850624511
 20
326.3674254245891
 30
0.0
 11
212.234985062451
 21
326.3674254245891
 31
0.0
  0
LINE
  5
2AE
330
1F
100
AcDbEntity
  8
NoLayerName_005
  6
Continuous
 62
    30
370
    50
100
AcDbLine
 10
219.5349850624507
 20
318.3674254245891
 30
0.0
 11
219.2349850624507
 21
318.3674254245891
 31
0.0
  0
LINE
  5
2AF
330
1F
100
AcDbEntity
  8
NoLayerName_005
  6
Continuous
 62
     7
370
    50
100
AcDbLine
 10
219.5349850624508
 20
317.3674254245891
 30
0.0
 11
219.5349850624508
 21
318.3674254245891
 31
0.0
  0
LINE
  5
2B0
330
1F
100
AcDbEntity
  8
NoLayerName_005
  6
Continuous
 62
    30
370
    50
100
AcDbLine
 10
219.5349850624507
 20
324.3674254245891
 30
0.0
 11
219.2349850624507
 21
324.3674254245891
 31
0.0
  0
LINE
  5
2B1
330
1F
100
AcDbEntity
  8
NoLayerName_005
  6
Continuous
 62
     7
370
    50
100
AcDbLine
 10
219.5349850624508
 20
325.3674254245891
 30
0.0
 11
219.5349850624508
 21
324.3674254245891
 31
0.0
  0
LINE
  5
2B2
330
1F
100
AcDbEntity
  8
NoLayerName_005
  6
Continuous
 62
    30
370
    50
100
AcDbLine
 10
222.9349850624507
 20
318.3674254245891
 30
0.0
 11
223.2349850624507
 21
318.3674254245891
 31
0.0
  0
LINE
  5
2B3
330
1F
100
AcDbEntity
  8
NoLayerName_005
  6
Continuous
 62
     7
370
    50
100
AcDbLine
 10
222.9349850624507
 20
317.3674254245891
 30
0.0
 11
222.9349850624507
 21
318.3674254245891
 31
0.0
  0
LINE
  5
2B4
330
1F
100
AcDbEntity
  8
NoLayerName_005
  6
Continuous
 62
    30
370
    50
100
AcDbLine
 10
222.9349850624507
 20
324.3674254245891
 30
0.0
 11
223.2349850624507
 21
324.3674254245891
 31
0.0
  0
LINE
  5
2B5
330
1F
100
AcDbEntity
  8
NoLayerName_005
  6
Continuous
 62
     7
370
    50
100
AcDbLine
 10
222.9349850624507
 20
325.3674254245891
 30
0.0
 11
222.9349850624507
 21
324.3674254245891
 31
0.0
  0
LINE
  5
2B6
330
1F
100
AcDbEntity
  8
NoLayerName_005
  6
Continuous
 62
     7
370
    50
100
AcDbLine
 10
218.5349850624507
 20
317.3674254245891
 30
0.0
 11
218.5349850624507
 21
325.3674254245892
 31
0.0
  0
LINE
  5
2B7
330
1F
100
AcDbEntity
  8
NoLayerName_005
  6
Continuous
 62
     7
370
    50
100
AcDbLine
 10
223.9349850624507
 20
325.3674254245891
 30
0.0
 11
223.9349850624507
 21
317.3674254245891
 31
0.0
  0
LINE
  5
2B8
330
1F
100
AcDbEntity
  8
NoLayerName_005
  6
Continuous
 62
     7
370
    50
100
AcDbLine
 10
217.5349850624507
 20
326.3674254245891
 30
0.0
 11
217.5349850624507
 21
315.8674254245891
 31
0.0
  0
LINE
  5
2B9
330
1F
100
AcDbEntity
  8
NoLayerName_005
  6
Continuous
 62
     7
370
    50
100
AcDbLine
 10
224.9349850624507
 20
326.3674254245891
 30
0.0
 11
224.9349850624507
 21
315.8674254245891
 31
0.0
  0
LINE
  5
2BA
330
1F
100
AcDbEntity
  8
NoLayerName_005
  6
Continuous
 62
     7
370
    50
100
AcDbLine
 10
219.2349850624507
 20
318.3674254245891
 30
0.0
 11
219.2349850624507
 21
324.3674254245891
 31
0.0
  0
LINE
  5
2BB
330
1F
100
AcDbEntity
  8
NoLayerName_005
  6
Continuous
 62
     7
370
    50
100
AcDbLine
 10
223.2349850624507
 20
324.3674254245891
 30
0.0
 11
223.2349850624507
 21
318.3674254245891
 31
0.0
  0
LINE
  5
2BC
330
1F
100
AcDbEntity
  8
NoLayerName_005
  6
Continuous
 62
    30
370
    50
100
AcDbLine
 10
218.234985062451
 20
305.5994762321581
 30
0.0
 11
218.234985062451
 21
315.8674254245891
 31
0.0
  0
LINE
  5
2BD
330
1F
100
AcDbEntity
  8
NoLayerName_005
  6
Continuous
 62
    30
370
    50
100
AcDbLine
 10
224.2349850624505
 20
306.3674254245891
 30
0.0
 11
224.2349850624505
 21
315.867425424589
 31
0.0
  0
LINE
  5
2BE
330
1F
100
AcDbEntity
  8
NoLayerName_004
  6
Continuous
 62
     7
370
    50
100
AcDbLine
 10
225.2349850624506
 20
342.8674254245891
 30
0.0
 11
225.2349850624506
 21
342.5674254245891
 31
0.0
  0
LINE
  5
2BF
330
1F
100
AcDbEntity
  8
NoLayerName_004
  6
Continuous
 62
     7
370
    50
100
AcDbLine
 10
225.2349850624506
 20
342.567425424589
 30
0.0
 11
222.973142349976
 21
340.3055827121144
 31
0.0
  0
LINE
  5
2C0
330
1F
100
AcDbEntity
  8
NoLayerName_004
  6
Continuous
 62
     7
370
    50
100
AcDbLine
 10
217.2349850624506
 20
342.567425424589
 30
0.0
 11
219.4968277749252
 21
340.3055827121144
 31
0.0
  0
LINE
  5
2C1
330
1F
100
AcDbEntity
  8
NoLayerName_004
  6
Continuous
 62
     7
370
    50
100
AcDbLine
 10
219.5780569509005
 20
340.188425424589
 30
0.0
 11
222.891913174001
 21
340.188425424589
 31
0.0
  0
ARC
  5
2C2
330
1F
100
AcDbEntity
  8
NoLayerName_004
  6
Continuous
 62
     7
370
    50
100
AcDbCircle
 10
223.2559850624508
 20
340.0227399996398
 30
0.0
 40
0.4
100
AcDbArc
 50
134.9999999999999
 51
179.9999999999999
  0
ARC
  5
2C3
330
1F
100
AcDbEntity
  8
NoLayerName_004
  6
Continuous
 62
     7
370
    50
100
AcDbCircle
 10
219.2139850624507
 20
340.0227399996398
 30
0.0
 40
0.4
100
AcDbArc
 50
0.0
 51
45.0
  0
LINE
  5
2C4
330
1F
100
AcDbEntity
  8
NoLayerName_004
  6
Continuous
 62
     7
370
    50
100
AcDbLine
 10
219.2349850624506
 20
337.8674254245891
 30
0.0
 11
219.6139850624506
 21
339.2674254245891
 31
0.0
  0
LINE
  5
2C5
330
1F
100
AcDbEntity
  8
NoLayerName_004
  6
Continuous
 62
     7
370
    50
100
AcDbLine
 10
219.2349850624506
 20
337.8674254245891
 30
0.0
 11
223.2349850624506
 21
337.8674254245891
 31
0.0
  0
LINE
  5
2C6
330
1F
100
AcDbEntity
  8
NoLayerName_004
  6
Continuous
 62
     7
370
    50
100
AcDbLine
 10
223.2349850624506
 20
337.8674254245891
 30
0.0
 11
222.8559850624506
 21
339.2674254245891
 31
0.0
  0
LINE
  5
2C7
330
1F
100
AcDbEntity
  8
NoLayerName_004
  6
Continuous
 62
     7
370
    50
100
AcDbLine
 10
222.8559850624507
 20
339.2674254245891
 30
0.0
 11
222.8559850624507
 21
340.0227399996398
 31
0.0
  0
LINE
  5
2C8
330
1F
100
AcDbEntity
  8
NoLayerName_004
  6
Continuous
 62
     7
370
    50
100
AcDbLine
 10
219.6139850624508
 20
339.2674254245891
 30
0.0
 11
219.6139850624508
 21
340.0227399996398
 31
0.0
  0
LINE
  5
2C9
330
1F
100
AcDbEntity
  8
NoLayerName_004
  6
Continuous
 62
     7
370
    50
100
AcDbLine
 10
225.2349850624506
 20
342.8674254245891
 30
0.0
 11
217.2349850624506
 21
342.8674254245891
 31
0.0
  0
LINE
  5
2CA
330
1F
100
AcDbEntity
  8
NoLayerName_004
  6
Continuous
 62
     7
370
    50
100
AcDbLine
 10
225.2349850624506
 20
342.567425424589
 30
0.0
 11
217.2349850624506
 21
342.567425424589
 31
0.0
  0
LINE
  5
2CB
330
1F
100
AcDbEntity
  8
NoLayerName_004
  6
Continuous
 62
     7
370
    50
100
AcDbLine
 10
217.2349850624508
 20
342.8674254245891
 30
0.0
 11
217.2349850624508
 21
342.5674254245891
 31
0.0
  0
LINE
  5
2CC
330
1F
100
AcDbEntity
  8
NoLayerName_004
  6
Continuous
 62
     7
370
    50
100
AcDbLine
 10
223.2349850624507
 20
325.3674254245891
 30
0.0
 11
223.2349850624507
 21
337.8674254245891
 31
0.0
  0
LINE
  5
2CD
330
1F
100
AcDbEntity
  8
NoLayerName_004
  6
Continuous
 62
     7
370
    50
100
AcDbLine
 10
219.2349850624507
 20
325.3674254245891
 30
0.0
 11
219.2349850624507
 21
337.8674254245891
 31
0.0
  0
LINE
  5
2CE
330
1F
100
AcDbEntity
  8
NoLayerName_005
  6
Continuous
 62
     7
370
    50
100
AcDbLine
 10
225.0349850624507
 20
342.3674254245891
 30
0.0
 11
226.7349850624509
 21
342.3674254245891
 31
0.0
  0
LINE
  5
2CF
330
1F
100
AcDbEntity
  8
NoLayerName_005
  6
Continuous
 62
     4
370
    50
100
AcDbLine
 10
224.0349850624507
 20
341.3674254245891
 30
0.0
 11
226.7349850624509
 21
341.3674254245891
 31
0.0
  0
LINE
  5
2D0
330
1F
100
AcDbEntity
  8
NoLayerName_005
  6
Continuous
 62
    30
370
    50
100
AcDbLine
 10
208.5349850624511
 20
318.3674254245891
 30
0.0
 11
208.2349850624511
 21
318.3674254245891
 31
0.0
  0
LINE
  5
2D1
330
1F
100
AcDbEntity
  8
NoLayerName_005
  6
Continuous
 62
     7
370
    50
100
AcDbLine
 10
208.5349850624511
 20
317.3674254245891
 30
0.0
 11
208.5349850624511
 21
318.3674254245891
 31
0.0
  0
LINE
  5
2D2
330
1F
100
AcDbEntity
  8
NoLayerName_005
  6
Continuous
 62
    30
370
    50
100
AcDbLine
 10
208.5349850624511
 20
324.3674254245891
 30
0.0
 11
208.2349850624511
 21
324.3674254245891
 31
0.0
  0
LINE
  5
2D3
330
1F
100
AcDbEntity
  8
NoLayerName_005
  6
Continuous
 62
     7
370
    50
100
AcDbLine
 10
208.5349850624511
 20
325.3674254245891
 30
0.0
 11
208.5349850624511
 21
324.3674254245891
 31
0.0
  0
LINE
  5
2D4
330
1F
100
AcDbEntity
  8
NoLayerName_005
  6
Continuous
 62
     7
370
    50
100
AcDbLine
 10
212.9349850624512
 20
317.3674254245891
 30
0.0
 11
212.9349850624512
 21
325.3674254245892
 31
0.0
  0
LINE
  5
2D5
330
1F
100
AcDbEntity
  8
NoLayerName_005
  6
Continuous
 62
    30
370
    50
100
AcDbLine
 10
211.9349850624511
 20
318.3674254245891
 30
0.0
 11
212.2349850624511
 21
318.3674254245891
 31
0.0
  0
LINE
  5
2D6
330
1F
100
AcDbEntity
  8
NoLayerName_005
  6
Continuous
 62
     7
370
    50
100
AcDbLine
 10
207.5349850624512
 20
325.3674254245891
 30
0.0
 11
207.5349850624512
 21
317.3674254245891
 31
0.0
  0
LINE
  5
2D7
330
1F
100
AcDbEntity
  8
NoLayerName_005
  6
Continuous
 62
     7
370
    50
100
AcDbLine
 10
211.9349850624511
 20
317.3674254245891
 30
0.0
 11
211.9349850624511
 21
318.3674254245891
 31
0.0
  0
LINE
  5
2D8
330
1F
100
AcDbEntity
  8
NoLayerName_005
  6
Continuous
 62
    30
370
    50
100
AcDbLine
 10
211.9349850624511
 20
324.3674254245891
 30
0.0
 11
212.2349850624511
 21
324.3674254245891
 31
0.0
  0
LINE
  5
2D9
330
1F
100
AcDbEntity
  8
NoLayerName_005
  6
Continuous
 62
     7
370
    50
100
AcDbLine
 10
211.9349850624511
 20
325.3674254245891
 30
0.0
 11
211.9349850624511
 21
324.3674254245891
 31
0.0
  0
LINE
  5
2DA
330
1F
100
AcDbEntity
  8
NoLayerName_005
  6
Continuous
 62
     7
370
    50
100
AcDbLine
 10
206.5349850624511
 20
326.3674254245891
 30
0.0
 11
206.5349850624511
 21
315.8674254245891
 31
0.0
  0
LINE
  5
2DB
330
1F
100
AcDbEntity
  8
NoLayerName_005
  6
Continuous
 62
     7
370
    50
100
AcDbLine
 10
213.9349850624511
 20
326.3674254245891
 30
0.0
 11
213.9349850624511
 21
315.8674254245891
 31
0.0
  0
LINE
  5
2DC
330
1F
100
AcDbEntity
  8
NoLayerName_005
  6
Continuous
 62
     7
370
    50
100
AcDbLine
 10
208.2349850624511
 20
318.3674254245891
 30
0.0
 11
208.2349850624511
 21
324.3674254245891
 31
0.0
  0
LINE
  5
2DD
330
1F
100
AcDbEntity
  8
NoLayerName_005
  6
Continuous
 62
     7
370
    50
100
AcDbLine
 10
212.2349850624511
 20
318.3674254245891
 30
0.0
 11
212.2349850624511
 21
324.3674254245891
 31
0.0
  0
LINE
  5
2DE
330
1F
100
AcDbEntity
  8
NoLayerName_005
  6
Continuous
 62
    30
370
    50
100
AcDbLine
 10
207.2349850624514
 20
306.3674254245891
 30
0.0
 11
207.2349850624513
 21
315.867425424589
 31
0.0
  0
LINE
  5
2DF
330
1F
100
AcDbEntity
  8
NoLayerName_005
  6
Continuous
 62
    30
370
    50
100
AcDbLine
 10
213.234985062451
 20
305.5994762321581
 30
0.0
 11
213.234985062451
 21
315.8674254245891
 31
0.0
  0
LINE
  5
2E0
330
1F
100
AcDbEntity
  8
NoLayerName_004
  6
Continuous
 62
     7
370
    50
100
AcDbLine
 10
212.234985062451
 20
325.3674254245891
 30
0.0
 11
212.234985062451
 21
337.8674254245891
 31
0.0
  0
LINE
  5
2E1
330
1F
100
AcDbEntity
  8
NoLayerName_004
  6
Continuous
 62
     7
370
    50
100
AcDbLine
 10
208.234985062451
 20
325.3674254245891
 30
0.0
 11
208.234985062451
 21
337.8674254245891
 31
0.0
  0
LINE
  5
2E2
330
1F
100
AcDbEntity
  8
NoLayerName_004
  6
Continuous
 62
     7
370
    50
100
AcDbLine
 10
206.2349850624512
 20
342.8674254245891
 30
0.0
 11
206.2349850624512
 21
342.5674254245891
 31
0.0
  0
LINE
  5
2E3
330
1F
100
AcDbEntity
  8
NoLayerName_004
  6
Continuous
 62
     7
370
    50
100
AcDbLine
 10
206.2349850624512
 20
342.567425424589
 30
0.0
 11
208.4968277749259
 21
340.3055827121144
 31
0.0
  0
LINE
  5
2E4
330
1F
100
AcDbEntity
  8
NoLayerName_004
  6
Continuous
 62
     7
370
    50
100
AcDbLine
 10
214.2349850624512
 20
342.567425424589
 30
0.0
 11
211.9731423499766
 21
340.3055827121144
 31
0.0
  0
LINE
  5
2E5
330
1F
100
AcDbEntity
  8
NoLayerName_004
  6
Continuous
 62
     7
370
    50
100
AcDbLine
 10
211.8919131740013
 20
340.188425424589
 30
0.0
 11
208.5780569509009
 21
340.188425424589
 31
0.0
  0
ARC
  5
2E6
330
1F
100
AcDbEntity
  8
NoLayerName_004
  6
Continuous
 62
     7
370
    50
100
AcDbCircle
 10
208.2139850624511
 20
340.0227399996398
 30
0.0
 40
0.4
100
AcDbArc
 50
0.0000000000000763
 51
45.00000000000008
  0
ARC
  5
2E7
330
1F
100
AcDbEntity
  8
NoLayerName_004
  6
Continuous
 62
     7
370
    50
100
AcDbCircle
 10
212.2559850624512
 20
340.0227399996398
 30
0.0
 40
0.4
100
AcDbArc
 50
135.0
 51
180.0
  0
LINE
  5
2E8
330
1F
100
AcDbEntity
  8
NoLayerName_004
  6
Continuous
 62
     7
370
    50
100
AcDbLine
 10
212.2349850624512
 20
337.8674254245891
 30
0.0
 11
211.8559850624513
 21
339.2674254245891
 31
0.0
  0
LINE
  5
2E9
330
1F
100
AcDbEntity
  8
NoLayerName_004
  6
Continuous
 62
     7
370
    50
100
AcDbLine
 10
212.2349850624512
 20
337.8674254245891
 30
0.0
 11
208.2349850624512
 21
337.8674254245891
 31
0.0
  0
LINE
  5
2EA
330
1F
100
AcDbEntity
  8
NoLayerName_004
  6
Continuous
 62
     7
370
    50
100
AcDbLine
 10
208.2349850624512
 20
337.8674254245891
 30
0.0
 11
208.6139850624512
 21
339.2674254245891
 31
0.0
  0
LINE
  5
2EB
330
1F
100
AcDbEntity
  8
NoLayerName_004
  6
Continuous
 62
     7
370
    50
100
AcDbLine
 10
208.6139850624511
 20
339.2674254245891
 30
0.0
 11
208.6139850624511
 21
340.0227399996398
 31
0.0
  0
LINE
  5
2EC
330
1F
100
AcDbEntity
  8
NoLayerName_004
  6
Continuous
 62
     7
370
    50
100
AcDbLine
 10
211.8559850624511
 20
339.2674254245891
 30
0.0
 11
211.8559850624511
 21
340.0227399996398
 31
0.0
  0
LINE
  5
2ED
330
1F
100
AcDbEntity
  8
NoLayerName_004
  6
Continuous
 62
     7
370
    50
100
AcDbLine
 10
206.2349850624512
 20
342.8674254245891
 30
0.0
 11
214.2349850624512
 21
342.8674254245891
 31
0.0
  0
LINE
  5
2EE
330
1F
100
AcDbEntity
  8
NoLayerName_004
  6
Continuous
 62
     7
370
    50
100
AcDbLine
 10
206.2349850624512
 20
342.567425424589
 30
0.0
 11
214.2349850624512
 21
342.567425424589
 31
0.0
  0
LINE
  5
2EF
330
1F
100
AcDbEntity
  8
NoLayerName_004
  6
Continuous
 62
     7
370
    50
100
AcDbLine
 10
214.234985062451
 20
342.8674254245891
 30
0.0
 11
214.234985062451
 21
342.5674254245891
 31
0.0
  0
LINE
  5
2F0
330
1F
100
AcDbEntity
  8
NoLayerName_005
  6
Continuous
 62
     7
370
    50
100
AcDbLine
 10
214.0349850624513
 20
342.3674254245891
 30
0.0
 11
217.4349850624505
 21
342.3674254245891
 31
0.0
  0
LINE
  5
2F1
330
1F
100
AcDbEntity
  8
NoLayerName_005
  6
Continuous
 62
     4
370
    50
100
AcDbLine
 10
213.0349850624514
 20
341.3674254245891
 30
0.0
 11
218.4349850624505
 21
341.3674254245891
 31
0.0
  0
LINE
  5
2F2
330
1F
100
AcDbEntity
  8
NoLayerName_005
  6
Continuous
 62
     7
370
    50
100
AcDbLine
 10
206.4349850624512
 20
342.3674254245891
 30
0.0
 11
204.734985062451
 21
342.3674254245891
 31
0.0
  0
LINE
  5
2F3
330
1F
100
AcDbEntity
  8
NoLayerName_005
  6
Continuous
 62
     4
370
    50
100
AcDbLine
 10
207.4349850624512
 20
341.3674254245891
 30
0.0
 11
204.734985062451
 21
341.3674254245891
 31
0.0
  0
LINE
  5
2F4
330
1F
100
AcDbEntity
  8
NoLayerName_001
  6
Continuous
 62
     7
370
    50
100
AcDbLine
 10
244.234985062451
 20
300.8674254245891
 30
0.0
 11
184.734985062451
 21
300.8674254245891
 31
0.0
  0
LINE
  5
2F5
330
1F
100
AcDbEntity
  8
NoLayerName_001
  6
Continuous
 62
     7
370
    50
100
AcDbLine
 10
184.734985062451
 20
373.8674254245892
 30
0.0
 11
244.234985062451
 21
373.8674254245892
 31
0.0
  0
LINE
  5
2F6
330
1F
100
AcDbEntity
  8
NoLayerName_001
  6
PHANTOM
 62
     8
370
    25
100
AcDbLine
 10
237.530887823013
 20
204.6942473207417
 30
0.0
 11
237.434985062451
 21
205.1728390790557
 31
0.0
  0
LINE
  5
2F7
330
1F
100
AcDbEntity
  8
NoLayerName_001
  6
Continuous
 62
     6
370
    50
100
AcDbLine
 10
237.530887823013
 20
204.6942473207417
 30
0.0
 11
238.164991210217
 21
201.5298268884561
 31
0.0
  0
LINE
  5
2F8
330
1F
100
AcDbEntity
  8
NoLayerName_001
  6
PHANTOM
 62
     8
370
    25
100
AcDbLine
 10
237.9230910044446
 20
205.1728390790558
 30
0.0
 11
237.4349850624509
 21
205.1728390790558
 31
0.0
  0
LINE
  5
2F9
330
1F
100
AcDbEntity
  8
NoLayerName_001
  6
Continuous
 62
     6
370
    50
100
AcDbLine
 10
237.9230910044446
 20
205.1728390790558
 30
0.0
 11
238.0095616925522
 21
205.1728390790558
 31
0.0
  0
LINE
  5
2FA
330
1F
100
AcDbEntity
  8
NoLayerName_001
  6
Continuous
 62
     6
370
    50
100
AcDbLine
 10
222.5468791204573
 20
205.1728390790558
 30
0.0
 11
222.4604084323497
 21
205.1728390790558
 31
0.0
  0
LINE
  5
2FB
330
1F
100
AcDbEntity
  8
NoLayerName_001
  6
Continuous
 62
     6
370
    50
100
AcDbLine
 10
205.9230910044446
 20
208.6728390790558
 30
0.0
 11
206.0095616925522
 21
208.6728390790558
 31
0.0
  0
ARC
  5
2FC
330
1F
100
AcDbEntity
  8
NoLayerName_001
  6
Continuous
 62
     6
370
    50
100
AcDbCircle
 10
205.9230910044446
 20
208.2728390790557
 30
0.0
 40
0.4
100
AcDbArc
 50
90.0
 51
191.3311587474024
  0
LINE
  5
2FD
330
1F
100
AcDbEntity
  8
NoLayerName_001
  6
Continuous
 62
     6
370
    50
100
AcDbLine
 10
190.5468791204573
 20
208.6728390790558
 30
0.0
 11
190.4604084323497
 21
208.6728390790558
 31
0.0
  0
ARC
  5
2FE
330
1F
100
AcDbEntity
  8
NoLayerName_001
  6
Continuous
 62
     6
370
    50
100
AcDbCircle
 10
190.5468791204573
 20
208.2728390790557
 30
0.0
 40
0.4
100
AcDbArc
 50
348.6688412525976
 51
90.0
  0
LINE
  5
2FF
330
1F
100
AcDbEntity
  8
NoLayerName_001
  6
Continuous
 62
    60
370
    50
100
AcDbLine
 10
128.9427727497512
 20
339.0674254245891
 30
0.0
 11
128.9427727497512
 21
339.3674254245892
 31
0.0
  0
LINE
  5
300
330
1F
100
AcDbEntity
  8
NoLayerName_001
  6
Continuous
 62
    60
370
    50
100
AcDbLine
 10
128.9427727497512
 20
339.0674254245891
 30
0.0
 11
125.2427727497513
 21
339.0674254245891
 31
0.0
  0
LINE
  5
301
330
1F
100
AcDbEntity
  8
NoLayerName_001
  6
Continuous
 62
    60
370
    50
100
AcDbLine
 10
125.2427727497513
 20
338.9674254245891
 30
0.0
 11
128.4427727497513
 21
338.9674254245891
 31
0.0
  0
LINE
  5
302
330
1F
100
AcDbEntity
  8
NoLayerName_001
  6
Continuous
 62
    60
370
    50
100
AcDbLine
 10
127.4427727497513
 20
338.9674254245891
 30
0.0
 11
127.4427727497513
 21
339.0674254245891
 31
0.0
  0
LINE
  5
303
330
1F
100
AcDbEntity
  8
NoLayerName_001
  6
Continuous
 62
    60
370
    50
100
AcDbLine
 10
128.4427727497513
 20
338.9674254245891
 30
0.0
 11
128.4427727497513
 21
339.0674254245891
 31
0.0
  0
LINE
  5
304
330
1F
100
AcDbEntity
  8
NoLayerName_001
  6
Continuous
 62
    60
370
    50
100
AcDbLine
 10
128.9427727497512
 20
335.6674254245891
 30
0.0
 11
128.9427727497512
 21
335.367425424589
 31
0.0
  0
LINE
  5
305
330
1F
100
AcDbEntity
  8
NoLayerName_001
  6
Continuous
 62
    60
370
    50
100
AcDbLine
 10
128.9427727497512
 20
335.6674254245891
 30
0.0
 11
125.2427727497513
 21
335.6674254245891
 31
0.0
  0
LINE
  5
306
330
1F
100
AcDbEntity
  8
NoLayerName_001
  6
Continuous
 62
    60
370
    50
100
AcDbLine
 10
125.2427727497513
 20
335.7674254245891
 30
0.0
 11
128.4427727497513
 21
335.7674254245891
 31
0.0
  0
LINE
  5
307
330
1F
100
AcDbEntity
  8
NoLayerName_001
  6
Continuous
 62
    60
370
    50
100
AcDbLine
 10
127.4427727497513
 20
335.7674254245891
 30
0.0
 11
127.4427727497513
 21
335.6674254245891
 31
0.0
  0
LINE
  5
308
330
1F
100
AcDbEntity
  8
NoLayerName_001
  6
Continuous
 62
    60
370
    50
100
AcDbLine
 10
128.4427727497513
 20
335.7674254245891
 30
0.0
 11
128.4427727497513
 21
335.6674254245891
 31
0.0
  0
LINE
  5
309
330
1F
100
AcDbEntity
  8
NoLayerName_001
  6
Continuous
 62
    60
370
    50
100
AcDbLine
 10
128.9427727497513
 20
339.3674254245891
 30
0.0
 11
102.9427727497513
 21
339.3674254245891
 31
0.0
  0
LINE
  5
30A
330
1F
100
AcDbEntity
  8
NoLayerName_001
  6
Continuous
 62
    60
370
    50
100
AcDbLine
 10
128.9427727497513
 20
335.3674254245891
 30
0.0
 11
102.9427727497513
 21
335.3674254245891
 31
0.0
  0
LINE
  5
30B
330
1F
100
AcDbEntity
  8
NoLayerName_001
  6
Continuous
 62
    60
370
    50
100
AcDbLine
 10
187.234985062451
 20
330.3674254245891
 30
0.0
 11
184.234985062451
 21
333.3674254245891
 31
0.0
  0
LINE
  5
30C
330
1F
100
AcDbEntity
  8
NoLayerName_001
  6
Continuous
 62
    60
370
    50
100
AcDbLine
 10
187.234985062451
 20
344.3674254245891
 30
0.0
 11
184.234985062451
 21
341.3674254245891
 31
0.0
  0
LINE
  5
30D
330
1F
100
AcDbEntity
  8
NoLayerName_001
  6
Continuous
 62
    60
370
    50
100
AcDbLine
 10
138.9427727497513
 20
330.3674254245891
 30
0.0
 11
135.9427727497513
 21
330.3674254245891
 31
0.0
  0
LINE
  5
30E
330
1F
100
AcDbEntity
  8
NoLayerName_001
  6
Continuous
 62
    60
370
    50
100
AcDbLine
 10
138.9427727497513
 20
344.3674254245891
 30
0.0
 11
135.9427727497513
 21
344.3674254245891
 31
0.0
  0
LINE
  5
30F
330
1F
100
AcDbEntity
  8
NoLayerName_001
  6
Continuous
 62
    60
370
    50
100
AcDbLine
 10
132.9427727497513
 20
344.3674254245891
 30
0.0
 11
104.9427727497513
 21
344.3674254245891
 31
0.0
  0
LINE
  5
310
330
1F
100
AcDbEntity
  8
NoLayerName_001
  6
Continuous
 62
    60
370
    50
100
AcDbLine
 10
104.9427727497512
 20
339.3674254245891
 30
0.0
 11
104.9427727497512
 21
344.3674254245891
 31
0.0
  0
LINE
  5
311
330
1F
100
AcDbEntity
  8
NoLayerName_001
  6
Continuous
 62
    60
370
    50
100
AcDbLine
 10
132.9427727497513
 20
330.3674254245891
 30
0.0
 11
104.9427727497513
 21
330.3674254245891
 31
0.0
  0
LINE
  5
312
330
1F
100
AcDbEntity
  8
NoLayerName_001
  6
Continuous
 62
    60
370
    50
100
AcDbLine
 10
104.9427727497512
 20
335.3674254245891
 30
0.0
 11
104.9427727497512
 21
330.3674254245891
 31
0.0
  0
LINE
  5
313
330
1F
100
AcDbEntity
  8
NoLayerName_004
  6
Continuous
 62
     8
370
    25
100
AcDbLine
 10
219.8349850624505
 20
303.8674254245891
 30
0.0
 11
222.6349850624505
 21
303.8674254245891
 31
0.0
  0
LINE
  5
314
330
1F
100
AcDbEntity
  8
NoLayerName_004
  6
Continuous
 62
     7
370
    50
100
AcDbLine
 10
219.2349850624506
 20
304.3674254245891
 30
0.0
 11
223.2349850624506
 21
304.3674254245891
 31
0.0
  0
LINE
  5
315
330
1F
100
AcDbEntity
  8
NoLayerName_004
  6
Continuous
 62
     7
370
    25
100
AcDbLine
 10
219.6139850624507
 20
304.0515920912557
 30
0.0
 11
219.6139850624507
 21
339.2674254245891
 31
0.0
  0
LINE
  5
316
330
1F
100
AcDbEntity
  8
NoLayerName_004
  6
Continuous
 62
     7
370
    25
100
AcDbLine
 10
222.8559850624507
 20
304.0515920912558
 30
0.0
 11
222.8559850624507
 21
339.2674254245891
 31
0.0
  0
LINE
  5
317
330
1F
100
AcDbEntity
  8
NoLayerName_004
  6
Continuous
 62
     7
370
    50
100
AcDbLine
 10
219.2349850624507
 20
317.3674254245891
 30
0.0
 11
219.2349850624507
 21
304.3674254245891
 31
0.0
  0
LINE
  5
318
330
1F
100
AcDbEntity
  8
NoLayerName_004
  6
Continuous
 62
     7
370
    50
100
AcDbLine
 10
223.2349850624507
 20
317.3674254245891
 30
0.0
 11
223.2349850624507
 21
304.3674254245891
 31
0.0
  0
LINE
  5
319
330
1F
100
AcDbEntity
  8
NoLayerName_004
  6
Continuous
 62
     7
370
    25
100
AcDbLine
 10
208.6139850624511
 20
304.0515920912557
 30
0.0
 11
208.6139850624511
 21
339.2674254245891
 31
0.0
  0
LINE
  5
31A
330
1F
100
AcDbEntity
  8
NoLayerName_004
  6
Continuous
 62
     7
370
    25
100
AcDbLine
 10
211.8559850624511
 20
304.0515920912558
 30
0.0
 11
211.8559850624511
 21
339.2674254245891
 31
0.0
  0
LINE
  5
31B
330
1F
100
AcDbEntity
  8
NoLayerName_004
  6
Continuous
 62
     7
370
    50
100
AcDbLine
 10
208.234985062451
 20
317.3674254245891
 30
0.0
 11
208.234985062451
 21
304.3674254245891
 31
0.0
  0
LINE
  5
31C
330
1F
100
AcDbEntity
  8
NoLayerName_004
  6
Continuous
 62
     7
370
    50
100
AcDbLine
 10
212.234985062451
 20
317.3674254245891
 30
0.0
 11
212.234985062451
 21
304.3674254245891
 31
0.0
  0
LINE
  5
31D
330
1F
100
AcDbEntity
  8
NoLayerName_004
  6
Continuous
 62
     8
370
    25
100
AcDbLine
 10
211.6349850624513
 20
303.8674254245891
 30
0.0
 11
208.8349850624513
 21
303.8674254245891
 31
0.0
  0
LINE
  5
31E
330
1F
100
AcDbEntity
  8
NoLayerName_004
  6
Continuous
 62
     7
370
    50
100
AcDbLine
 10
212.2349850624512
 20
304.3674254245891
 30
0.0
 11
208.2349850624512
 21
304.3674254245891
 31
0.0
  0
LINE
  5
31F
330
1F
100
AcDbEntity
  8
NoLayerName_004
  6
Continuous
 62
     7
370
    50
100
AcDbLine
 10
212.2349850624512
 20
304.3674254245891
 30
0.0
 11
210.2349850624512
 21
302.7007587579225
 31
0.0
  0
LINE
  5
320
330
1F
100
AcDbEntity
  8
NoLayerName_004
  6
Continuous
 62
     7
370
    50
100
AcDbLine
 10
208.2349850624512
 20
304.3674254245891
 30
0.0
 11
210.2349850624512
 21
302.7007587579225
 31
0.0
  0
LINE
  5
321
330
1F
100
AcDbEntity
  8
NoLayerName_004
  6
Continuous
 62
     7
370
    50
100
AcDbLine
 10
223.2349850624506
 20
304.3674254245891
 30
0.0
 11
221.2349850624508
 21
302.7007587579226
 31
0.0
  0
LINE
  5
322
330
1F
100
AcDbEntity
  8
NoLayerName_004
  6
Continuous
 62
     7
370
    50
100
AcDbLine
 10
219.2349850624506
 20
304.3674254245891
 30
0.0
 11
221.2349850624508
 21
302.7007587579224
 31
0.0
  0
LINE
  5
323
330
1F
100
AcDbEntity
  8
NoLayerName_001
  6
Continuous
 62
    60
370
    50
100
AcDbLine
 10
241.734985062451
 20
289.3674254245891
 30
0.0
 11
189.734985062451
 21
289.3674254245891
 31
0.0
  0
LINE
  5
324
330
1F
100
AcDbEntity
  8
NoLayerName_001
  6
Continuous
 62
    60
370
    50
100
AcDbLine
 10
244.234985062451
 20
288.8674254245891
 30
0.0
 11
244.234985062451
 21
337.3674254245891
 31
0.0
  0
LINE
  5
325
330
1F
100
AcDbEntity
  8
NoLayerName_001
  6
Continuous
 62
    60
370
    50
100
AcDbLine
 10
241.734985062451
 20
289.3674254245891
 30
0.0
 11
189.734985062451
 21
289.3674254245891
 31
0.0
  0
LINE
  5
326
330
1F
100
AcDbEntity
  8
NoLayerName_001
  6
Continuous
 62
    60
370
    50
100
AcDbLine
 10
241.734985062451
 20
337.3674254245891
 30
0.0
 11
241.734985062451
 21
289.3674254245891
 31
0.0
  0
LINE
  5
327
330
1F
100
AcDbEntity
  8
NoLayerName_001
  6
Continuous
 62
     7
370
    50
100
AcDbLine
 10
240.234985062451
 20
291.1674254245891
 30
0.0
 11
241.734985062451
 21
291.5674254245891
 31
0.0
  0
LINE
  5
328
330
1F
100
AcDbEntity
  8
NoLayerName_001
  6
Continuous
 62
     7
370
    50
100
AcDbLine
 10
240.234985062451
 20
293.5674254245891
 30
0.0
 11
241.734985062451
 21
293.1674254245891
 31
0.0
  0
LINE
  5
329
330
1F
100
AcDbEntity
  8
NoLayerName_004
  6
Continuous
 62
    60
370
    50
100
AcDbLine
 10
242.234985062451
 20
286.8674254245891
 30
0.0
 11
183.734985062451
 21
286.8674254245891
 31
0.0
  0
ARC
  5
32A
330
1F
100
AcDbEntity
  8
NoLayerName_004
  6
Continuous
 62
    60
370
    50
100
AcDbCircle
 10
242.234985062451
 20
288.8674254245891
 30
0.0
 40
2.0
100
AcDbArc
 50
270.0
 51
0.0
  0
LINE
  5
32B
330
1F
100
AcDbEntity
  8
NoLayerName_001
  6
Continuous
 62
     7
370
    50
100
AcDbLine
 10
240.234985062451
 20
293.5674254245891
 30
0.0
 11
240.234985062451
 21
296.5674254245893
 31
0.0
  0
LINE
  5
32C
330
1F
100
AcDbEntity
  8
NoLayerName_001
  6
Continuous
 62
     7
370
    50
100
AcDbLine
 10
240.234985062451
 20
291.1674254245891
 30
0.0
 11
240.234985062451
 21
290.8674254245891
 31
0.0
  0
LINE
  5
32D
330
1F
100
AcDbEntity
  8
NoLayerName_001
  6
Continuous
 62
     7
370
    50
100
AcDbLine
 10
240.234985062451
 20
290.8674254245891
 30
0.0
 11
238.134985062451
 21
290.8674254245891
 31
0.0
  0
LINE
  5
32E
330
1F
100
AcDbEntity
  8
NoLayerName_001
  6
Continuous
 62
     7
370
    50
100
AcDbLine
 10
238.134985062451
 20
289.3674254245891
 30
0.0
 11
238.134985062451
 21
290.8674254245891
 31
0.0
  0
LINE
  5
32F
330
1F
100
AcDbEntity
  8
NoLayerName_001
  6
Continuous
 62
     7
370
    50
100
AcDbLine
 10
240.234985062451
 20
383.5674254245893
 30
0.0
 11
241.734985062451
 21
383.1674254245892
 31
0.0
  0
LINE
  5
330
330
1F
100
AcDbEntity
  8
NoLayerName_001
  6
Continuous
 62
     7
370
    50
100
AcDbLine
 10
240.234985062451
 20
381.1674254245892
 30
0.0
 11
241.734985062451
 21
381.5674254245893
 31
0.0
  0
LINE
  5
331
330
1F
100
AcDbEntity
  8
NoLayerName_001
  6
Continuous
 62
     7
370
    50
100
AcDbLine
 10
240.234985062451
 20
381.1674254245892
 30
0.0
 11
240.234985062451
 21
378.1674254245891
 31
0.0
  0
LINE
  5
332
330
1F
100
AcDbEntity
  8
NoLayerName_001
  6
Continuous
 62
     7
370
    50
100
AcDbLine
 10
240.234985062451
 20
383.5674254245893
 30
0.0
 11
240.234985062451
 21
383.8674254245892
 31
0.0
  0
LINE
  5
333
330
1F
100
AcDbEntity
  8
NoLayerName_001
  6
Continuous
 62
     7
370
    50
100
AcDbLine
 10
240.234985062451
 20
383.8674254245892
 30
0.0
 11
238.134985062451
 21
383.8674254245892
 31
0.0
  0
LINE
  5
334
330
1F
100
AcDbEntity
  8
NoLayerName_001
  6
Continuous
 62
     7
370
    50
100
AcDbLine
 10
238.1349850624509
 20
385.3674254245892
 30
0.0
 11
238.1349850624509
 21
383.8674254245892
 31
0.0
  0
LINE
  5
335
330
1F
100
AcDbEntity
  8
NoLayerName_001
  6
Continuous
 62
    60
370
    50
100
AcDbLine
 10
135.9427727497513
 20
317.3674254245891
 30
0.0
 11
104.9427727497513
 21
317.3674254245891
 31
0.0
  0
LINE
  5
336
330
1F
100
AcDbEntity
  8
NoLayerName_001
  6
Continuous
 62
    60
370
    50
100
AcDbLine
 10
135.9427727497513
 20
357.3674254245891
 30
0.0
 11
104.9427727497513
 21
357.3674254245891
 31
0.0
  0
LINE
  5
337
330
1F
100
AcDbEntity
  8
NoLayerName_001
  6
Continuous
 62
    60
370
    50
100
AcDbLine
 10
135.9427727497513
 20
358.3674254245891
 30
0.0
 11
104.9427727497513
 21
358.3674254245891
 31
0.0
  0
LINE
  5
338
330
1F
100
AcDbEntity
  8
NoLayerName_001
  6
Continuous
 62
    60
370
    50
100
AcDbLine
 10
134.9427727497513
 20
316.3674254245891
 30
0.0
 11
104.9427727497513
 21
316.3674254245891
 31
0.0
  0
ELLIPSE
  5
339
330
1F
100
AcDbEntity
  8
NoLayerName_004
  6
Continuous
 62
     7
370
    50
100
AcDbEllipse
 10
191.8112410743399
 20
337.3674254245891
 30
0.0
 11
7.347880794883997E-17
 21
1.19999999999998
 31
0.0
210
0.0
220
0.0
230
1.0
 40
0.5735764363511086
 41
0.1110181595405173
 42
3.141592653589793
  0
ELLIPSE
  5
33A
330
1F
100
AcDbEntity
  8
NoLayerName_004
  6
Continuous
 62
     7
370
    50
100
AcDbEllipse
 10
190.8112410743399
 20
337.3674254245891
 30
0.0
 11
7.347880794883997E-17
 21
1.19999999999998
 31
0.0
210
0.0
220
0.0
230
1.0
 40
0.5735764363511086
 41
0.1110181595405173
 42
3.141592653589793
  0
ELLIPSE
  5
33B
330
1F
100
AcDbEntity
  8
NoLayerName_004
  6
Continuous
 62
     7
370
    50
100
AcDbEllipse
 10
189.8112410743399
 20
337.3674254245891
 30
0.0
 11
7.347880794883997E-17
 21
1.19999999999998
 31
0.0
210
0.0
220
0.0
230
1.0
 40
0.5735764363511086
 41
0.1110181595405173
 42
3.141592653589793
  0
ELLIPSE
  5
33C
330
1F
100
AcDbEntity
  8
NoLayerName_004
  6
Continuous
 62
     7
370
    50
100
AcDbEllipse
 10
188.8112410743399
 20
337.3674254245891
 30
0.0
 11
7.347880794883997E-17
 21
1.19999999999998
 31
0.0
210
0.0
220
0.0
230
1.0
 40
0.5735764363511086
 41
0.1110181595405173
 42
3.141592653589793
  0
DIMENSION
  5
33D
102
{ACAD_XDICTIONARY
360
33E
102
}
330
1F
100
AcDbEntity
  8
NoLayerName_001
  6
Continuous
 62
     7
370
    25
100
AcDbDimension
  2
*D2
 10
192.734985062451
 20
302.9824364089254
 30
0.0
 11
191.234985062451
 21
302.9824364089254
 31
0.0
 70
   160
  1
\W0.8500;<>
 71
     5
 42
3.0
  3
Standard
100
AcDbAlignedDimension
 13
189.734985062451
 23
300.8674254245892
 33
0.0
 14
192.734985062451
 24
307.3674254245891
 34
0.0
100
AcDbRotatedDimension
1001
ACAD
1000
DSTYLE
1002
{
1070
   347
1005
16
1070
   372
1070
    25
1070
   346
1005
16
1070
   371
1070
    25
1070
   345
1005
16
1070
   178
1070
     0
1070
   177
1070
     0
1070
   176
1070
     0
1070
    47
1040
0.0
1070
    48
1040
0.0
1070
    78
1070
     8
1070
   271
1070
     5
1070
    41
1040
0.8
1070
   342
1005
33F
1070
    75
1070
     1
1070
    42
1040
0.6000000000000227
1070
    44
1040
1.0
1070
   147
1040
1.0
1070
   140
1040
2.700000047683716
1002
}
1001
ACAD_DSTYLE_DIM_LINETYPE
1070
   380
1005
16
1001
ACAD_DSTYLE_DIM_EXT1_LINETYPE
1070
   381
1005
16
1001
ACAD_DSTYLE_DIM_EXT2_LINETYPE
1070
   382
1005
16
  0
LINE
  5
352
330
1F
100
AcDbEntity
  8
NoLayerName_001
  6
Continuous
 62
     7
370
    50
100
AcDbLine
 10
311.5618389955529
 20
365.3674254245891
 30
0.0
 11
309.5618389955529
 21
365.3674254245891
 31
0.0
  0
LINE
  5
353
330
1F
100
AcDbEntity
  8
NoLayerName_001
  6
Continuous
 62
     7
370
    50
100
AcDbLine
 10
311.5618389955529
 20
359.3674254245891
 30
0.0
 11
309.5618389955529
 21
359.3674254245891
 31
0.0
  0
LINE
  5
354
330
1F
100
AcDbEntity
  8
NoLayerName_001
  6
Continuous
 62
    60
370
    50
100
AcDbLine
 10
331.5618389955528
 20
360.3674254245891
 30
0.0
 11
319.5618389955528
 21
360.3674254245891
 31
0.0
  0
LINE
  5
355
330
1F
100
AcDbEntity
  8
NoLayerName_001
  6
Continuous
 62
    60
370
    50
100
AcDbLine
 10
330.9901246812615
 20
360.9674254245891
 30
0.0
 11
318.1335533098444
 21
360.9674254245891
 31
0.0
  0
LINE
  5
356
330
1F
100
AcDbEntity
  8
NoLayerName_001
  6
Continuous
 62
    60
370
    50
100
AcDbLine
 10
330.9901246812615
 20
363.7674254245892
 30
0.0
 11
318.1335533098444
 21
363.7674254245892
 31
0.0
  0
LINE
  5
357
330
1F
100
AcDbEntity
  8
NoLayerName_001
  6
Continuous
 62
    60
370
    50
100
AcDbLine
 10
331.5618389955528
 20
364.3674254245891
 30
0.0
 11
319.5618389955528
 21
364.3674254245891
 31
0.0
  0
ARC
  5
358
330
1F
100
AcDbEntity
  8
NoLayerName_001
  6
Continuous
 62
    60
370
    50
100
AcDbCircle
 10
311.5618389955529
 20
362.3674254245891
 30
0.0
 40
2.999999999999989
100
AcDbArc
 50
270.0
 51
90.0
  0
ARC
  5
359
330
1F
100
AcDbEntity
  8
NoLayerName_001
  6
Continuous
 62
    60
370
    50
100
AcDbCircle
 10
331.5618389955528
 20
362.3674254245891
 30
0.0
 40
2.0
100
AcDbArc
 50
270.0
 51
90.0
  0
ARC
  5
35A
330
1F
100
AcDbEntity
  8
NoLayerName_001
  6
Continuous
 62
    60
370
    50
100
AcDbCircle
 10
329.5618389955528
 20
362.3674254245891
 30
0.0
 40
2.0
100
AcDbArc
 50
270.0
 51
90.0
  0
ARC
  5
35B
330
1F
100
AcDbEntity
  8
NoLayerName_001
  6
Continuous
 62
    60
370
    50
100
AcDbCircle
 10
319.5618389955528
 20
362.3674254245891
 30
0.0
 40
2.0
100
AcDbArc
 50
90.0
 51
270.0
  0
LINE
  5
35C
330
1F
100
AcDbEntity
  8
NoLayerName_001
  6
Continuous
 62
     7
370
    50
100
AcDbLine
 10
193.334985062451
 20
438.1022780118176
 30
0.0
 11
195.134985062451
 21
438.1022780118176
 31
0.0
  0
LINE
  5
35D
330
1F
100
AcDbEntity
  8
NoLayerName_001
  6
Continuous
 62
     7
370
    50
100
AcDbLine
 10
311.5618389955529
 20
315.3674254245891
 30
0.0
 11
309.5618389955529
 21
315.3674254245891
 31
0.0
  0
LINE
  5
35E
330
1F
100
AcDbEntity
  8
NoLayerName_001
  6
Continuous
 62
     7
370
    50
100
AcDbLine
 10
195.734985062451
 20
436.7022780118177
 30
0.0
 11
195.734985062451
 21
437.5022780118177
 31
0.0
  0
LINE
  5
35F
330
1F
100
AcDbEntity
  8
NoLayerName_001
  6
Continuous
 62
     7
370
    50
100
AcDbLine
 10
192.734985062451
 20
437.5022780118177
 30
0.0
 11
192.734985062451
 21
436.7022780118177
 31
0.0
  0
LINE
  5
360
330
1F
100
AcDbEntity
  8
NoLayerName_001
  6
Continuous
 62
     7
370
    50
100
AcDbLine
 10
311.5618389955529
 20
309.3674254245891
 30
0.0
 11
309.5618389955529
 21
309.3674254245891
 31
0.0
  0
ARC
  5
361
330
1F
100
AcDbEntity
  8
NoLayerName_001
  6
Continuous
 62
     7
370
    50
100
AcDbCircle
 10
195.1349850624509
 20
437.5022780118177
 30
0.0
 40
0.6
100
AcDbArc
 50
0.0
 51
90.0
  0
LINE
  5
362
330
1F
100
AcDbEntity
  8
NoLayerName_001
  6
Continuous
 62
     7
370
    50
100
AcDbLine
 10
193.334985062451
 20
436.1022780118176
 30
0.0
 11
195.134985062451
 21
436.1022780118176
 31
0.0
  0
ARC
  5
363
330
1F
100
AcDbEntity
  8
NoLayerName_001
  6
Continuous
 62
    60
370
    50
100
AcDbCircle
 10
311.5618389955529
 20
312.3674254245891
 30
0.0
 40
2.999999999999989
100
AcDbArc
 50
270.0
 51
90.0
  0
ARC
  5
364
330
1F
100
AcDbEntity
  8
NoLayerName_001
  6
Continuous
 62
     7
370
    50
100
AcDbCircle
 10
195.1349850624509
 20
436.7022780118177
 30
0.0
 40
0.6
100
AcDbArc
 50
270.0
 51
360.0
  0
ARC
  5
365
330
1F
100
AcDbEntity
  8
NoLayerName_001
  6
Continuous
 62
     7
370
    50
100
AcDbCircle
 10
193.334985062451
 20
436.7022780118177
 30
0.0
 40
0.6
100
AcDbArc
 50
180.0
 51
270.0
  0
ARC
  5
366
330
1F
100
AcDbEntity
  8
NoLayerName_001
  6
Continuous
 62
     7
370
    50
100
AcDbCircle
 10
193.334985062451
 20
437.5022780118177
 30
0.0
 40
0.6
100
AcDbArc
 50
90.0
 51
180.0
  0
ARC
  5
367
330
1F
100
AcDbEntity
  8
NoLayerName_006
  6
Continuous
 62
    60
370
    50
100
AcDbCircle
 10
198.234985062451
 20
451.3022780118176
 30
0.0
 40
14.0
100
AcDbArc
 50
259.7316942019897
 51
0.0
  0
ARC
  5
368
330
1F
100
AcDbEntity
  8
NoLayerName_006
  6
Continuous
 62
    60
370
    50
100
AcDbCircle
 10
198.234985062451
 20
451.3022780118176
 30
0.0
 40
14.0
100
AcDbArc
 50
180.0
 51
249.6344637359111
  0
LINE
  5
369
330
1F
100
AcDbEntity
  8
NoLayerName_001
  6
Continuous
 62
    60
370
    50
100
AcDbLine
 10
331.5618389955528
 20
310.3674254245891
 30
0.0
 11
319.5618389955528
 21
310.3674254245891
 31
0.0
  0
LINE
  5
36A
330
1F
100
AcDbEntity
  8
NoLayerName_001
  6
Continuous
 62
    60
370
    50
100
AcDbLine
 10
330.9901246812615
 20
310.9674254245892
 30
0.0
 11
318.1335533098444
 21
310.9674254245892
 31
0.0
  0
LINE
  5
36B
330
1F
100
AcDbEntity
  8
NoLayerName_001
  6
Continuous
 62
    60
370
    50
100
AcDbLine
 10
331.5618389955528
 20
314.3674254245891
 30
0.0
 11
319.5618389955528
 21
314.3674254245891
 31
0.0
  0
LINE
  5
36C
330
1F
100
AcDbEntity
  8
NoLayerName_001
  6
Continuous
 62
    60
370
    50
100
AcDbLine
 10
330.9901246812615
 20
313.7674254245892
 30
0.0
 11
318.1335533098444
 21
313.7674254245892
 31
0.0
  0
ARC
  5
36D
330
1F
100
AcDbEntity
  8
NoLayerName_001
  6
Continuous
 62
    60
370
    50
100
AcDbCircle
 10
331.5618389955528
 20
312.3674254245891
 30
0.0
 40
2.0
100
AcDbArc
 50
270.0
 51
90.0
  0
ARC
  5
36E
330
1F
100
AcDbEntity
  8
NoLayerName_001
  6
Continuous
 62
    60
370
    50
100
AcDbCircle
 10
329.5618389955528
 20
312.3674254245891
 30
0.0
 40
2.0
100
AcDbArc
 50
270.0
 51
90.0
  0
ARC
  5
36F
330
1F
100
AcDbEntity
  8
NoLayerName_001
  6
Continuous
 62
    60
370
    50
100
AcDbCircle
 10
319.5618389955528
 20
312.3674254245891
 30
0.0
 40
2.0
100
AcDbArc
 50
90.0
 51
270.0
  0
ARC
  5
370
330
1F
100
AcDbEntity
  8
NoLayerName_001
  6
Continuous
 62
     6
370
    50
100
AcDbCircle
 10
190.5468791204573
 20
456.7022780118177
 30
0.0
 40
0.4
100
AcDbArc
 50
269.9999999999998
 51
11.33115874740239
  0
LINE
  5
371
330
1F
100
AcDbEntity
  8
NoLayerName_001
  6
Continuous
 62
     6
370
    50
100
AcDbLine
 10
190.939082301889
 20
456.7808697701316
 30
0.0
 11
190.3049789146849
 21
459.9452902024172
 31
0.0
  0
LINE
  5
372
330
1F
100
AcDbEntity
  8
NoLayerName_001
  6
Continuous
 62
     6
370
    50
100
AcDbLine
 10
190.5349850624509
 20
456.3022780118176
 30
0.0
 11
190.4604084323496
 21
456.3022780118176
 31
0.0
  0
LINE
  5
373
330
1F
100
AcDbEntity
  8
NoLayerName_001
  6
PHANTOM
 62
    30
370
    25
100
AcDbLine
 10
190.5349850624509
 20
456.3022780118176
 30
0.0
 11
190.5349850624509
 21
459.6556642886786
 31
0.0
  0
LINE
  5
374
330
1F
100
AcDbEntity
  8
NoLayerName_001
  6
Continuous
 62
     6
370
    50
100
AcDbLine
 10
188.0791507956939
 20
457.8179819537645
 30
0.0
 11
187.3502405807365
 21
460.2301720259574
 31
0.0
  0
ARC
  5
375
330
1F
100
AcDbEntity
  8
NoLayerName_001
  6
Continuous
 62
     6
370
    50
100
AcDbCircle
 10
187.6962505504367
 20
457.7022780118177
 30
0.0
 40
0.4
100
AcDbArc
 50
274.7221462867945
 51
16.81364980713825
  0
ARC
  5
376
330
1F
100
AcDbEntity
  8
NoLayerName_001
  6
Continuous
 62
     6
370
    50
100
AcDbCircle
 10
205.9230910044446
 20
456.7022780118177
 30
0.0
 40
0.4
100
AcDbArc
 50
168.6688412525976
 51
270.0000000000001
  0
LINE
  5
377
330
1F
100
AcDbEntity
  8
NoLayerName_001
  6
Continuous
 62
     6
370
    50
100
AcDbLine
 10
205.5308878230129
 20
456.7808697701316
 30
0.0
 11
206.164991210217
 21
459.9452902024172
 31
0.0
  0
LINE
  5
378
330
1F
100
AcDbEntity
  8
NoLayerName_001
  6
Continuous
 62
     6
370
    50
100
AcDbLine
 10
205.9349850624509
 20
456.3022780118176
 30
0.0
 11
206.0095616925522
 21
456.3022780118176
 31
0.0
  0
LINE
  5
379
330
1F
100
AcDbEntity
  8
NoLayerName_001
  6
Continuous
 62
     6
370
    50
100
AcDbLine
 10
208.3908193292079
 20
457.8179819537645
 30
0.0
 11
209.1197295441654
 21
460.2301720259574
 31
0.0
  0
ARC
  5
37A
330
1F
100
AcDbEntity
  8
NoLayerName_001
  6
Continuous
 62
     6
370
    50
100
AcDbCircle
 10
208.7737195744651
 20
457.7022780118177
 30
0.0
 40
0.4
100
AcDbArc
 50
163.1863501928618
 51
265.2778537132055
  0
ARC
  5
37B
330
1F
100
AcDbEntity
  8
NoLayerName_001
  6
Continuous
 62
     6
370
    50
100
AcDbCircle
 10
222.5468791204573
 20
460.2022780118177
 30
0.0
 40
0.4
100
AcDbArc
 50
269.9999999999998
 51
11.33115874740239
  0
LINE
  5
37C
330
1F
100
AcDbEntity
  8
NoLayerName_001
  6
Continuous
 62
     6
370
    50
100
AcDbLine
 10
222.939082301889
 20
460.2808697701316
 30
0.0
 11
222.3049789146849
 21
463.4452902024172
 31
0.0
  0
ARC
  5
37D
330
1F
100
AcDbEntity
  8
NoLayerName_001
  6
Continuous
 62
     6
370
    50
100
AcDbCircle
 10
237.9230910044446
 20
460.2022780118177
 30
0.0
 40
0.4
100
AcDbArc
 50
168.6688412525976
 51
270.0000000000001
  0
LINE
  5
37E
330
1F
100
AcDbEntity
  8
NoLayerName_001
  6
Continuous
 62
     6
370
    50
100
AcDbLine
 10
237.5308878230129
 20
460.2808697701316
 30
0.0
 11
238.164991210217
 21
463.4452902024172
 31
0.0
  0
ARC
  5
37F
330
1F
100
AcDbEntity
  8
NoLayerName_001
  6
Continuous
 62
    60
370
    50
100
AcDbCircle
 10
315.5618389955528
 20
337.3674254245891
 30
0.0
 40
4.0
100
AcDbArc
 50
270.0
 51
90.0
  0
LINE
  5
380
330
1F
100
AcDbEntity
  8
NoLayerName_001
  6
Continuous
 62
    60
370
    50
100
AcDbLine
 10
310.0618389955529
 20
333.3674254245891
 30
0.0
 11
315.5618389955529
 21
333.3674254245891
 31
0.0
  0
LINE
  5
381
330
1F
100
AcDbEntity
  8
NoLayerName_001
  6
Continuous
 62
    60
370
    50
100
AcDbLine
 10
315.5618389955528
 20
341.3674254245891
 30
0.0
 11
310.0618389955528
 21
341.3674254245891
 31
0.0
  0
LINE
  5
382
330
1F
100
AcDbEntity
  8
NoLayerName_001
  6
Continuous
 62
    60
370
    50
100
AcDbLine
 10
345.5618389955528
 20
337.3674254245891
 30
0.0
 11
345.5618389955528
 21
385.867425424589
 31
0.0
  0
LINE
  5
383
330
1F
100
AcDbEntity
  8
NoLayerName_001
  6
Continuous
 62
    60
370
    50
100
AcDbLine
 10
345.5618389955528
 20
337.3674254245891
 30
0.0
 11
345.5618389955528
 21
288.8674254245892
 31
0.0
  0
LINE
  5
384
330
1F
100
AcDbEntity
  8
NoLayerName_001
  6
Continuous
 62
    60
370
    50
100
AcDbLine
 10
309.5618389955529
 20
286.8674254245891
 30
0.0
 11
309.5618389955529
 21
335.367425424589
 31
0.0
  0
ARC
  5
385
330
1F
100
AcDbEntity
  8
NoLayerName_001
  6
Continuous
 62
    60
370
    50
100
AcDbCircle
 10
343.5618389955528
 20
288.8674254245891
 30
0.0
 40
2.0
100
AcDbArc
 50
270.0
 51
0.0
  0
LINE
  5
386
330
1F
100
AcDbEntity
  8
NoLayerName_001
  6
Continuous
 62
    60
370
    50
100
AcDbLine
 10
343.5618389955528
 20
286.8674254245891
 30
0.0
 11
309.5618389955528
 21
286.8674254245891
 31
0.0
  0
ARC
  5
387
330
1F
100
AcDbEntity
  8
NoLayerName_006
  6
Continuous
 62
    30
370
    50
100
AcDbCircle
 10
333.5618389955526
 20
333.6674254245893
 30
0.0
 40
11.3
100
AcDbArc
 50
90.0
 51
270.0
  0
ARC
  5
388
330
1F
100
AcDbEntity
  8
NoLayerName_006
  6
Continuous
 62
    30
370
    50
100
AcDbCircle
 10
333.5618389955526
 20
333.6674254245893
 30
0.0
 40
8.700000000000001
100
AcDbArc
 50
74.49136531530883
 51
283.5921116480726
  0
LINE
  5
389
330
1F
100
AcDbEntity
  8
NoLayerName_006
  6
Continuous
 62
    30
370
    50
100
AcDbLine
 10
333.5618389955526
 20
322.3674254245893
 30
0.0
 11
345.5618389955526
 21
322.3674254245893
 31
0.0
  0
LINE
  5
38A
330
1F
100
AcDbEntity
  8
NoLayerName_006
  6
Continuous
 62
    30
370
    50
100
AcDbLine
 10
333.5618389955526
 20
344.9674254245892
 30
0.0
 11
345.5618389955526
 21
344.9674254245892
 31
0.0
  0
LINE
  5
38B
330
1F
100
AcDbEntity
  8
NoLayerName_006
  6
Continuous
 62
     7
370
    50
100
AcDbLine
 10
339.1146254000528
 20
327.8910322223393
 30
0.0
 11
342.5618389955528
 21
326.1674254245893
 31
0.0
  0
LINE
  5
38C
330
1F
100
AcDbEntity
  8
NoLayerName_006
  6
Continuous
 62
     7
370
    50
100
AcDbLine
 10
338.5618389955528
 20
328.7854594133391
 30
0.0
 11
338.5618389955528
 21
338.5493914358393
 31
0.0
  0
LINE
  5
38D
330
1F
100
AcDbEntity
  8
NoLayerName_006
  6
Continuous
 62
     7
370
    50
100
AcDbLine
 10
339.1146254000528
 20
339.4438186268393
 30
0.0
 11
342.5618389955528
 21
341.1674254245893
 31
0.0
  0
LINE
  5
38E
330
1F
100
AcDbEntity
  8
NoLayerName_006
  6
Continuous
 62
     7
370
    50
100
AcDbLine
 10
342.5618389955528
 20
341.1674254245893
 30
0.0
 11
345.5618389955528
 21
341.1674254245893
 31
0.0
  0
LINE
  5
38F
330
1F
100
AcDbEntity
  8
NoLayerName_006
  6
Continuous
 62
     7
370
    50
100
AcDbLine
 10
342.5618389955528
 20
326.1674254245893
 30
0.0
 11
345.5618389955528
 21
326.1674254245893
 31
0.0
  0
LINE
  5
390
330
1F
100
AcDbEntity
  8
NoLayerName_006
  6
Continuous
 62
     7
370
    50
100
AcDbLine
 10
341.5618389955528
 20
342.6674254245893
 30
0.0
 11
345.5618389955528
 21
343.1674254245893
 31
0.0
  0
LINE
  5
391
330
1F
100
AcDbEntity
  8
NoLayerName_006
  6
Continuous
 62
    60
370
    50
100
AcDbLine
 10
337.7297271217447
 20
341.6103929389709
 30
0.0
 11
335.6064111490556
 21
342.123767701787
 31
0.0
  0
LINE
  5
392
330
1F
100
AcDbEntity
  8
NoLayerName_006
  6
Continuous
 62
    60
370
    50
100
AcDbLine
 10
341.069760295769
 20
342.2983663997514
 30
0.0
 11
341.5618389955528
 21
342.6674254245893
 31
0.0
  0
ARC
  5
393
330
1F
100
AcDbEntity
  8
NoLayerName_006
  6
Continuous
 62
    60
370
    50
100
AcDbCircle
 10
338.6697602957689
 20
345.4983663997514
 30
0.0
 40
4.0
100
AcDbArc
 50
256.4078883519274
 51
306.8698976458443
  0
LINE
  5
394
330
1F
100
AcDbEntity
  8
NoLayerName_006
  6
Continuous
 62
     8
370
    25
100
AcDbLine
 10
337.7297271217447
 20
341.6103929389709
 30
0.0
 11
339.5618389955529
 21
341.1674254245893
 31
0.0
  0
LINE
  5
395
330
1F
100
AcDbEntity
  8
NoLayerName_006
  6
Continuous
 62
     8
370
    25
100
AcDbLine
 10
341.069760295769
 20
342.2983663997514
 30
0.0
 11
339.5618389955528
 21
341.1674254245893
 31
0.0
  0
ARC
  5
396
330
1F
100
AcDbEntity
  8
NoLayerName_006
  6
Continuous
 62
     7
370
    50
100
AcDbCircle
 10
339.5618389955528
 20
338.5493914358394
 30
0.0
 40
1.0
100
AcDbArc
 50
116.565051177078
 51
180.0
  0
ARC
  5
397
330
1F
100
AcDbEntity
  8
NoLayerName_006
  6
Continuous
 62
     7
370
    50
100
AcDbCircle
 10
339.5618389955528
 20
328.7854594133391
 30
0.0
 40
1.0
100
AcDbArc
 50
180.0
 51
243.434948822922
  0
LINE
  5
398
330
1F
100
AcDbEntity
  8
NoLayerName_006
  6
Continuous
 62
    60
370
    50
100
AcDbLine
 10
337.7297271217447
 20
325.7244579102077
 30
0.0
 11
335.6064111490557
 21
325.2110831473916
 31
0.0
  0
LINE
  5
399
330
1F
100
AcDbEntity
  8
NoLayerName_006
  6
Continuous
 62
    60
370
    50
100
AcDbLine
 10
341.5618389955528
 20
324.6674254245893
 30
0.0
 11
341.069760295769
 21
325.0364844494271
 31
0.0
  0
ARC
  5
39A
330
1F
100
AcDbEntity
  8
NoLayerName_006
  6
Continuous
 62
    60
370
    50
100
AcDbCircle
 10
338.6697602957689
 20
321.8364844494272
 30
0.0
 40
4.0
100
AcDbArc
 50
53.1301023541557
 51
103.5921116480726
  0
LINE
  5
39B
330
1F
100
AcDbEntity
  8
NoLayerName_006
  6
Continuous
 62
     7
370
    50
100
AcDbLine
 10
341.5618389955528
 20
324.6674254245893
 30
0.0
 11
345.5618389955529
 21
324.1674254245893
 31
0.0
  0
LINE
  5
39C
330
1F
100
AcDbEntity
  8
NoLayerName_006
  6
Continuous
 62
    60
370
    50
100
AcDbLine
 10
339.6674118045528
 20
339.7202118290893
 30
0.0
 11
339.3063953642834
 21
341.5602786983779
 31
0.0
  0
LINE
  5
39D
330
1F
100
AcDbEntity
  8
NoLayerName_006
  6
Continuous
 62
    60
370
    50
100
AcDbLine
 10
340.2850584215378
 20
341.8390205613689
 30
0.0
 11
341.4562661865526
 21
340.6146390200892
 31
0.0
  0
LINE
  5
39E
330
1F
100
AcDbEntity
  8
NoLayerName_006
  6
Continuous
 62
    60
370
    50
100
AcDbLine
 10
339.6674118045528
 20
327.6146390200893
 30
0.0
 11
339.3063953642834
 21
325.7745721508006
 31
0.0
  0
LINE
  5
39F
330
1F
100
AcDbEntity
  8
NoLayerName_006
  6
Continuous
 62
    60
370
    50
100
AcDbLine
 10
340.2850584215378
 20
325.4958302878097
 30
0.0
 11
341.4562661865526
 21
326.7202118290894
 31
0.0
  0
LINE
  5
3A0
330
1F
100
AcDbEntity
  8
NoLayerName_001
  6
Continuous
 62
    60
370
    50
100
AcDbLine
 10
310.0618389955529
 20
337.8674254245891
 30
0.0
 11
310.0618389955529
 21
339.3674254245891
 31
0.0
  0
LINE
  5
3A1
330
1F
100
AcDbEntity
  8
NoLayerName_001
  6
Continuous
 62
    60
370
    50
100
AcDbLine
 10
309.5618389955529
 20
337.8674254245891
 30
0.0
 11
310.0618389955529
 21
337.8674254245891
 31
0.0
  0
LINE
  5
3A2
330
1F
100
AcDbEntity
  8
NoLayerName_001
  6
Continuous
 62
    60
370
    50
100
AcDbLine
 10
310.0618389955529
 20
339.3674254245891
 30
0.0
 11
309.5618389955529
 21
339.3674254245891
 31
0.0
  0
LINE
  5
3A3
330
1F
100
AcDbEntity
  8
NoLayerName_001
  6
Continuous
 62
    60
370
    50
100
AcDbLine
 10
310.0618389955529
 20
336.8674254245891
 30
0.0
 11
310.0618389955529
 21
335.3674254245891
 31
0.0
  0
LINE
  5
3A4
330
1F
100
AcDbEntity
  8
NoLayerName_001
  6
Continuous
 62
    60
370
    50
100
AcDbLine
 10
310.0618389955529
 20
335.3674254245891
 30
0.0
 11
309.5618389955529
 21
335.3674254245891
 31
0.0
  0
LINE
  5
3A5
330
1F
100
AcDbEntity
  8
NoLayerName_001
  6
Continuous
 62
    60
370
    50
100
AcDbLine
 10
309.5618389955529
 20
336.8674254245891
 30
0.0
 11
310.0618389955529
 21
336.8674254245891
 31
0.0
  0
LINE
  5
3A6
330
1F
100
AcDbEntity
  8
NoLayerName_001
  6
Continuous
 62
    60
370
    50
100
AcDbLine
 10
309.5618389955529
 20
387.8674254245891
 30
0.0
 11
309.5618389955529
 21
339.3674254245892
 31
0.0
  0
LINE
  5
3A7
330
1F
100
AcDbEntity
  8
NoLayerName_001
  6
Continuous
 62
    60
370
    50
100
AcDbLine
 10
309.5618389955529
 20
337.8674254245891
 30
0.0
 11
309.5618389955529
 21
336.8674254245891
 31
0.0
  0
ARC
  5
3A8
330
1F
100
AcDbEntity
  8
NoLayerName_001
  6
Continuous
 62
    60
370
    50
100
AcDbCircle
 10
310.0618389955529
 20
332.8674254245891
 30
0.0
 40
0.5
100
AcDbArc
 50
90.0
 51
180.0
  0
ARC
  5
3A9
330
1F
100
AcDbEntity
  8
NoLayerName_001
  6
Continuous
 62
    60
370
    50
100
AcDbCircle
 10
310.0618389955529
 20
341.8674254245891
 30
0.0
 40
0.5
100
AcDbArc
 50
180.0
 51
270.0
  0
ARC
  5
3AA
330
1F
100
AcDbEntity
  8
NoLayerName_001
  6
Continuous
 62
    60
370
    50
100
AcDbCircle
 10
343.5618389955528
 20
385.8674254245891
 30
0.0
 40
2.0
100
AcDbArc
 50
360.0
 51
90.0
  0
LINE
  5
3AB
330
1F
100
AcDbEntity
  8
NoLayerName_001
  6
Continuous
 62
    60
370
    50
100
AcDbLine
 10
343.5618389955528
 20
387.8674254245891
 30
0.0
 11
309.5618389955528
 21
387.8674254245891
 31
0.0
  0
LINE
  5
3AC
330
1F
100
AcDbEntity
  8
NoLayerName_003
  6
CENTER
 62
    30
370
    25
100
AcDbLine
 10
305.5986416521563
 20
337.3674254245891
 30
0.0
 11
349.1618389955529
 21
337.3674254245891
 31
0.0
  0
LINE
  5
3AD
330
1F
100
AcDbEntity
  8
NoLayerName_001
  6
Continuous
 62
    60
370
    50
100
AcDbLine
 10
244.734985062451
 20
432.8022780118176
 30
0.0
 11
244.734985062451
 21
466.8022780118176
 31
0.0
  0
ARC
  5
3AE
330
1F
100
AcDbEntity
  8
NoLayerName_001
  6
Continuous
 62
    60
370
    50
100
AcDbCircle
 10
242.734985062451
 20
466.8022780118176
 30
0.0
 40
2.0
100
AcDbArc
 50
0.0
 51
90.00000000000006
  0
LINE
  5
3AF
330
1F
100
AcDbEntity
  8
NoLayerName_002
  6
Continuous
 62
     7
370
    50
100
AcDbLine
 10
220.9171472678534
 20
440.5242431001986
 30
0.0
 11
220.9171472678534
 21
435.0803129234367
 31
0.0
  0
LINE
  5
3B0
330
1F
100
AcDbEntity
  8
NoLayerName_002
  6
Continuous
 62
     7
370
    50
100
AcDbLine
 10
220.9171472678535
 20
440.5242431001989
 30
0.0
 11
219.4849850624509
 21
439.0245100278635
 31
0.0
  0
LINE
  5
3B1
330
1F
100
AcDbEntity
  8
NoLayerName_002
  6
Continuous
 62
     7
370
    50
100
AcDbLine
 10
220.9171472678535
 20
440.5242431001989
 30
0.0
 11
210.5528228570485
 21
440.5242431001989
 31
0.0
  0
LINE
  5
3B2
330
1F
100
AcDbEntity
  8
NoLayerName_004
  6
Continuous
 62
    60
370
    50
100
AcDbLine
 10
219.0349850624509
 20
436.602278011772
 30
0.0
 11
212.4349850624509
 21
436.602278011772
 31
0.0
  0
LINE
  5
3B3
330
1F
100
AcDbEntity
  8
NoLayerName_004
  6
Continuous
 62
    60
370
    50
100
AcDbLine
 10
219.0349850624509
 20
439.002278011772
 30
0.0
 11
212.4349850624509
 21
439.002278011772
 31
0.0
  0
LINE
  5
3B4
330
1F
100
AcDbEntity
  8
NoLayerName_004
  6
Continuous
 62
    60
370
    50
100
AcDbLine
 10
215.734985062451
 20
436.9775556867453
 30
0.0
 11
215.734985062451
 21
438.6270003367988
 31
0.0
  0
ELLIPSE
  5
3B5
330
1F
100
AcDbEntity
  8
NoLayerName_004
  6
Continuous
 62
    60
370
    50
100
AcDbEllipse
 10
213.984985062451
 20
436.9775556867453
 30
0.0
 11
1.75
 21
0.0
 31
0.0
210
0.0
220
0.0
230
1.0
 40
0.2144443856990068
 41
3.141592653589793
 42
6.283185307179586
  0
LINE
  5
3B6
330
1F
100
AcDbEntity
  8
NoLayerName_002
  6
Continuous
 62
     7
370
    50
100
AcDbLine
 10
211.984985062451
 20
436.7100459957721
 30
0.0
 11
212.2349850624509
 21
436.7822780118178
 31
0.0
  0
LINE
  5
3B7
330
1F
100
AcDbEntity
  8
NoLayerName_002
  6
Continuous
 62
     7
370
    50
100
AcDbLine
 10
211.984985062451
 20
438.8945100278636
 30
0.0
 11
212.2349850624509
 21
438.8222780118179
 31
0.0
  0
LINE
  5
3B8
330
1F
100
AcDbEntity
  8
NoLayerName_002
  6
Continuous
 62
     7
370
    50
100
AcDbLine
 10
212.234985062451
 20
438.8222780118178
 30
0.0
 11
212.234985062451
 21
436.7822780118179
 31
0.0
  0
LINE
  5
3B9
330
1F
100
AcDbEntity
  8
NoLayerName_002
  6
Continuous
 62
     7
370
    50
100
AcDbLine
 10
219.484985062451
 20
436.7100459957721
 30
0.0
 11
219.234985062451
 21
436.7822780118178
 31
0.0
  0
LINE
  5
3BA
330
1F
100
AcDbEntity
  8
NoLayerName_002
  6
Continuous
 62
     7
370
    50
100
AcDbLine
 10
219.484985062451
 20
438.8945100278636
 30
0.0
 11
219.234985062451
 21
438.8222780118179
 31
0.0
  0
LINE
  5
3BB
330
1F
100
AcDbEntity
  8
NoLayerName_002
  6
Continuous
 62
     7
370
    50
100
AcDbLine
 10
219.234985062451
 20
438.8222780118178
 30
0.0
 11
219.234985062451
 21
436.7822780118178
 31
0.0
  0
LINE
  5
3BC
330
1F
100
AcDbEntity
  8
NoLayerName_002
  6
Continuous
 62
     7
370
    50
100
AcDbLine
 10
219.484985062451
 20
436.580045995772
 30
0.0
 11
211.984985062451
 21
436.580045995772
 31
0.0
  0
LINE
  5
3BD
330
1F
100
AcDbEntity
  8
NoLayerName_002
  6
Continuous
 62
     7
370
    50
100
AcDbLine
 10
219.484985062451
 20
439.0245100278635
 30
0.0
 11
211.984985062451
 21
439.0245100278635
 31
0.0
  0
LINE
  5
3BE
330
1F
100
AcDbEntity
  8
NoLayerName_002
  6
Continuous
 62
     7
370
    50
100
AcDbLine
 10
211.984985062451
 20
436.580045995772
 30
0.0
 11
211.984985062451
 21
439.0245100278634
 31
0.0
  0
LINE
  5
3BF
330
1F
100
AcDbEntity
  8
NoLayerName_002
  6
Continuous
 62
     7
370
    50
100
AcDbLine
 10
219.484985062451
 20
439.0245100278635
 30
0.0
 11
219.484985062451
 21
436.5800459957721
 31
0.0
  0
LINE
  5
3C0
330
1F
100
AcDbEntity
  8
NoLayerName_002
  6
Continuous
 62
     7
370
    50
100
AcDbLine
 10
220.9171472678534
 20
435.0803129234368
 30
0.0
 11
210.5528228570486
 21
435.0803129234368
 31
0.0
  0
LINE
  5
3C1
330
1F
100
AcDbEntity
  8
NoLayerName_002
  6
Continuous
 62
     7
370
    50
100
AcDbLine
 10
210.5528228570486
 20
435.0803129234368
 30
0.0
 11
210.5528228570486
 21
440.5242431001988
 31
0.0
  0
LINE
  5
3C2
330
1F
100
AcDbEntity
  8
NoLayerName_002
  6
Continuous
 62
     7
370
    50
100
AcDbLine
 10
210.5528228570486
 20
440.5242431001989
 30
0.0
 11
211.9849850624509
 21
439.0245100278636
 31
0.0
  0
LINE
  5
3C3
330
1F
100
AcDbEntity
  8
NoLayerName_002
  6
Continuous
 62
     7
370
    50
100
AcDbLine
 10
211.984985062451
 20
436.580045995772
 30
0.0
 11
210.5528228570486
 21
435.0803129234367
 31
0.0
  0
LINE
  5
3C4
330
1F
100
AcDbEntity
  8
NoLayerName_002
  6
Continuous
 62
     7
370
    50
100
AcDbLine
 10
220.9171472678534
 20
435.0803129234368
 30
0.0
 11
219.4849850624509
 21
436.5800459957721
 31
0.0
  0
LINE
  5
3C5
330
1F
100
AcDbEntity
  8
NoLayerName_006
  6
Continuous
 62
    60
370
    50
100
AcDbLine
 10
212.234985062451
 20
451.3022780118176
 30
0.0
 11
212.234985062451
 21
468.8022780118176
 31
0.0
  0
LINE
  5
3C6
330
1F
100
AcDbEntity
  8
NoLayerName_006
  6
Continuous
 62
    60
370
    50
100
AcDbLine
 10
211.034985062451
 20
468.8022780118176
 30
0.0
 11
210.234985062451
 21
462.6017705176876
 31
0.0
  0
LINE
  5
3C7
330
1F
100
AcDbEntity
  8
NoLayerName_006
  6
Continuous
 62
    60
370
    50
100
AcDbLine
 10
185.4349850624511
 20
468.8022780118176
 30
0.0
 11
186.2349850624511
 21
462.6017705176876
 31
0.0
  0
ARC
  5
3C8
330
1F
100
AcDbEntity
  8
NoLayerName_006
  6
Continuous
 62
    60
370
    50
100
AcDbCircle
 10
198.234985062451
 20
451.3022780118176
 30
0.0
 40
10.5
100
AcDbArc
 50
162.0302461366283
 51
17.96975386337171
  0
ARC
  5
3C9
330
1F
100
AcDbEntity
  8
NoLayerName_006
  6
Continuous
 62
    60
370
    50
100
AcDbCircle
 10
198.234985062451
 20
451.3022780118176
 30
0.0
 40
11.5
100
AcDbArc
 50
162.0302461366284
 51
17.96975386337161
  0
ARC
  5
3CA
330
1F
100
AcDbEntity
  8
NoLayerName_006
  6
Continuous
 62
    60
370
    50
100
AcDbCircle
 10
198.234985062451
 20
451.3022780118176
 30
0.0
 40
8.7
100
AcDbArc
 50
162.0302461366283
 51
17.96975386337166
  0
LINE
  5
3CB
330
1F
100
AcDbEntity
  8
NoLayerName_006
  6
Continuous
 62
    60
370
    50
100
AcDbLine
 10
187.8426802170377
 20
449.8022780118176
 30
0.0
 11
186.7594676449225
 21
450.5522780118176
 31
0.0
  0
LINE
  5
3CC
330
1F
100
AcDbEntity
  8
NoLayerName_006
  6
Continuous
 62
    60
370
    50
100
AcDbLine
 10
187.8426802170377
 20
452.8022780118176
 30
0.0
 11
186.7594676449225
 21
452.0522780118176
 31
0.0
  0
LINE
  5
3CD
330
1F
100
AcDbEntity
  8
NoLayerName_006
  6
Continuous
 62
    60
370
    50
100
AcDbLine
 10
199.734985062451
 20
440.9099731664044
 30
0.0
 11
198.984985062451
 21
439.8267605942891
 31
0.0
  0
LINE
  5
3CE
330
1F
100
AcDbEntity
  8
NoLayerName_006
  6
Continuous
 62
    60
370
    50
100
AcDbLine
 10
196.734985062451
 20
440.9099731664044
 30
0.0
 11
197.484985062451
 21
439.8267605942891
 31
0.0
  0
LINE
  5
3CF
330
1F
100
AcDbEntity
  8
NoLayerName_006
  6
Continuous
 62
    60
370
    50
100
AcDbLine
 10
208.6272899078642
 20
452.8022780118176
 30
0.0
 11
209.7105024799795
 21
452.0522780118176
 31
0.0
  0
LINE
  5
3D0
330
1F
100
AcDbEntity
  8
NoLayerName_006
  6
Continuous
 62
    60
370
    50
100
AcDbLine
 10
208.6272899078642
 20
449.8022780118176
 30
0.0
 11
209.7105024799795
 21
450.5522780118176
 31
0.0
  0
ARC
  5
3D1
330
1F
100
AcDbEntity
  8
NoLayerName_006
  6
Continuous
 62
    60
370
    50
100
AcDbCircle
 10
178.734985062451
 20
457.6268333321545
 30
0.0
 40
9.0
100
AcDbArc
 50
342.0302461366285
 51
33.55730976192082
  0
ARC
  5
3D2
330
1F
100
AcDbEntity
  8
NoLayerName_006
  6
Continuous
 62
    60
370
    50
100
AcDbCircle
 10
217.734985062451
 20
457.6268333321545
 30
0.0
 40
9.0
100
AcDbArc
 50
146.4426902380791
 51
197.9697538633715
  0
LINE
  5
3D3
330
1F
100
AcDbEntity
  8
NoLayerName_006
  6
Continuous
 62
    60
370
    50
100
AcDbLine
 10
187.4193172032399
 20
459.989538406526
 30
0.0
 11
188.5386246308371
 21
459.5987996638076
 31
0.0
  0
LINE
  5
3D4
330
1F
100
AcDbEntity
  8
NoLayerName_006
  6
Continuous
 62
    60
370
    50
100
AcDbLine
 10
186.9062869882514
 20
461.399077337705
 30
0.0
 11
187.5125642008601
 21
462.4178775261654
 31
0.0
  0
ARC
  5
3D5
330
1F
100
AcDbEntity
  8
NoLayerName_006
  6
Continuous
 62
    60
370
    50
100
AcDbCircle
 10
178.734985062451
 20
457.6268333321545
 30
0.0
 40
11.8
100
AcDbArc
 50
342.0302461366282
 51
29.99999999999989
  0
ARC
  5
3D6
330
1F
100
AcDbEntity
  8
NoLayerName_006
  6
Continuous
 62
    60
370
    50
100
AcDbCircle
 10
178.734985062451
 20
457.6268333321545
 30
0.0
 40
10.0
100
AcDbArc
 50
342.0302461366282
 51
29.99999999999997
  0
ARC
  5
3D7
330
1F
100
AcDbEntity
  8
NoLayerName_006
  6
Continuous
 62
    60
370
    50
100
AcDbCircle
 10
188.1746619637014
 20
463.0768333321546
 30
0.0
 40
0.8999999999999907
100
AcDbArc
 50
29.99999999999951
 51
209.9999999999993
  0
LINE
  5
3D8
330
1F
100
AcDbEntity
  8
NoLayerName_006
  6
Continuous
 62
    60
370
    50
100
AcDbLine
 10
209.050652921662
 20
459.989538406526
 30
0.0
 11
207.9313454940648
 21
459.5987996638076
 31
0.0
  0
LINE
  5
3D9
330
1F
100
AcDbEntity
  8
NoLayerName_006
  6
Continuous
 62
    60
370
    50
100
AcDbLine
 10
209.5636831366506
 20
461.3990773377049
 30
0.0
 11
208.9574059240419
 21
462.4178775261653
 31
0.0
  0
ARC
  5
3DA
330
1F
100
AcDbEntity
  8
NoLayerName_006
  6
Continuous
 62
    60
370
    50
100
AcDbCircle
 10
217.734985062451
 20
457.6268333321545
 30
0.0
 40
11.8
100
AcDbArc
 50
150.0
 51
197.9697538633717
  0
ARC
  5
3DB
330
1F
100
AcDbEntity
  8
NoLayerName_006
  6
Continuous
 62
    60
370
    50
100
AcDbCircle
 10
217.734985062451
 20
457.6268333321545
 30
0.0
 40
10.0
100
AcDbArc
 50
149.9999999999999
 51
197.9697538633717
  0
ARC
  5
3DC
330
1F
100
AcDbEntity
  8
NoLayerName_006
  6
Continuous
 62
    60
370
    50
100
AcDbCircle
 10
208.2953081612006
 20
463.0768333321545
 30
0.0
 40
0.8999999999999907
100
AcDbArc
 50
330.0000000000006
 51
150.0000000000004
  0
ARC
  5
3DD
330
1F
100
AcDbEntity
  8
NoLayerName_001
  6
Continuous
 62
    60
370
    50
100
AcDbCircle
 10
183.734985062451
 20
466.8022780118176
 30
0.0
 40
2.0
100
AcDbArc
 50
90.0
 51
180.0
  0
LINE
  5
3DE
330
1F
100
AcDbEntity
  8
NoLayerName_001
  6
Continuous
 62
    60
370
    50
100
AcDbLine
 10
181.734985062451
 20
432.8022780118176
 30
0.0
 11
181.7349850624509
 21
466.8022780118176
 31
0.0
  0
LINE
  5
3DF
330
1F
100
AcDbEntity
  8
NoLayerName_006
  6
Continuous
 62
    60
370
    50
100
AcDbLine
 10
184.234985062451
 20
451.3022780118176
 30
0.0
 11
184.234985062451
 21
468.8022780118176
 31
0.0
  0
ELLIPSE
  5
3E0
330
1F
100
AcDbEntity
  8
NoLayerName_004
  6
Continuous
 62
    60
370
    50
100
AcDbEllipse
 10
217.484985062451
 20
436.9775556867453
 30
0.0
 11
-1.75
 21
0.0
 31
0.0
210
0.0
220
0.0
230
1.0
 40
0.2144443856990068
 41
0.0
 42
3.141592653589793
  0
ELLIPSE
  5
3E1
330
1F
100
AcDbEntity
  8
NoLayerName_004
  6
Continuous
 62
    60
370
    50
100
AcDbEllipse
 10
213.984985062451
 20
438.6270003367988
 30
0.0
 11
1.75
 21
0.0
 31
0.0
210
0.0
220
0.0
230
1.0
 40
0.2144443856990068
 41
0.0
 42
3.141592653589793
  0
ELLIPSE
  5
3E2
330
1F
100
AcDbEntity
  8
NoLayerName_004
  6
Continuous
 62
    60
370
    50
100
AcDbEllipse
 10
217.484985062451
 20
438.6270003367988
 30
0.0
 11
-1.75
 21
0.0
 31
0.0
210
0.0
220
0.0
230
1.0
 40
0.2144443856990068
 41
3.141592653589793
 42
6.283185307179586
  0
LINE
  5
3E3
330
1F
100
AcDbEntity
  8
NoLayerName_004
  6
Continuous
 62
    60
370
    50
100
AcDbLine
 10
212.4349850624509
 20
436.602278011772
 30
0.0
 11
212.2349850624509
 21
436.802278011772
 31
0.0
  0
LINE
  5
3E4
330
1F
100
AcDbEntity
  8
NoLayerName_004
  6
Continuous
 62
    60
370
    50
100
AcDbLine
 10
212.234985062451
 20
438.8022780117719
 30
0.0
 11
212.4349850624509
 21
439.0022780117719
 31
0.0
  0
LINE
  5
3E5
330
1F
100
AcDbEntity
  8
NoLayerName_004
  6
Continuous
 62
    60
370
    50
100
AcDbLine
 10
219.234985062451
 20
438.8022780117719
 30
0.0
 11
219.034985062451
 21
439.0022780117719
 31
0.0
  0
LINE
  5
3E6
330
1F
100
AcDbEntity
  8
NoLayerName_004
  6
Continuous
 62
    60
370
    50
100
AcDbLine
 10
219.234985062451
 20
436.8022780117719
 30
0.0
 11
219.034985062451
 21
436.6022780117719
 31
0.0
  0
LINE
  5
3E7
330
1F
100
AcDbEntity
  8
NoLayerName_002
  6
Continuous
 62
     7
370
    50
100
AcDbLine
 10
219.2149850624968
 20
436.7822780118179
 30
0.0
 11
219.2349850624511
 21
436.7822780118179
 31
0.0
  0
LINE
  5
3E8
330
1F
100
AcDbEntity
  8
NoLayerName_001
  6
Continuous
 62
    60
370
    50
100
AcDbLine
 10
180.734985062451
 20
435.8022780118176
 30
0.0
 11
179.734985062451
 21
436.3022780118176
 31
0.0
  0
LINE
  5
3E9
330
1F
100
AcDbEntity
  8
NoLayerName_001
  6
Continuous
 62
    60
370
    50
100
AcDbLine
 10
179.734985062451
 20
436.3022780118176
 30
0.0
 11
180.734985062451
 21
436.8022780118176
 31
0.0
  0
LINE
  5
3EA
330
1F
100
AcDbEntity
  8
NoLayerName_001
  6
Continuous
 62
    60
370
    50
100
AcDbLine
 10
180.734985062451
 20
465.8022780118176
 30
0.0
 11
179.734985062451
 21
466.3022780118176
 31
0.0
  0
LINE
  5
3EB
330
1F
100
AcDbEntity
  8
NoLayerName_001
  6
Continuous
 62
    60
370
    50
100
AcDbLine
 10
179.734985062451
 20
466.3022780118176
 30
0.0
 11
180.734985062451
 21
466.8022780118176
 31
0.0
  0
LINE
  5
3EC
330
1F
100
AcDbEntity
  8
NoLayerName_001
  6
Continuous
 62
    60
370
    50
100
AcDbLine
 10
181.734985062451
 20
466.8022780118176
 30
0.0
 11
180.734985062451
 21
466.8022780118176
 31
0.0
  0
LINE
  5
3ED
330
1F
100
AcDbEntity
  8
NoLayerName_001
  6
Continuous
 62
    60
370
    50
100
AcDbLine
 10
180.734985062451
 20
432.8022780118176
 30
0.0
 11
180.734985062451
 21
435.8022780118177
 31
0.0
  0
LINE
  5
3EE
330
1F
100
AcDbEntity
  8
NoLayerName_001
  6
Continuous
 62
    60
370
    50
100
AcDbLine
 10
180.734985062451
 20
447.8022780118176
 30
0.0
 11
181.734985062451
 21
454.8022780118176
 31
0.0
  0
LINE
  5
3EF
330
1F
100
AcDbEntity
  8
NoLayerName_001
  6
Continuous
 62
    60
370
    50
100
AcDbLine
 10
181.734985062451
 20
445.8022780118176
 30
0.0
 11
178.734985062451
 21
445.8022780118176
 31
0.0
  0
LINE
  5
3F0
330
1F
100
AcDbEntity
  8
NoLayerName_001
  6
Continuous
 62
    60
370
    50
100
AcDbLine
 10
180.734985062451
 20
447.8022780118176
 30
0.0
 11
178.734985062451
 21
445.8022780118176
 31
0.0
  0
LINE
  5
3F1
330
1F
100
AcDbEntity
  8
NoLayerName_001
  6
Continuous
 62
    60
370
    50
100
AcDbLine
 10
180.734985062451
 20
445.8022780118176
 30
0.0
 11
180.734985062451
 21
436.8022780118177
 31
0.0
  0
LINE
  5
3F2
330
1F
100
AcDbEntity
  8
NoLayerName_002
  6
Continuous
 62
     7
370
    50
100
AcDbLine
 10
219.142753046451
 20
436.7100459957721
 30
0.0
 11
219.4849850624509
 21
436.7100459957721
 31
0.0
  0
LINE
  5
3F3
330
1F
100
AcDbEntity
  8
NoLayerName_002
  6
Continuous
 62
     7
370
    50
100
AcDbLine
 10
218.2836997425734
 20
436.602278011772
 30
0.0
 11
218.2836997425734
 21
436.580045995772
 31
0.0
  0
LINE
  5
3F4
330
1F
100
AcDbEntity
  8
NoLayerName_001
  6
Continuous
 62
    60
370
    50
100
AcDbLine
 10
180.734985062451
 20
447.8022780118176
 30
0.0
 11
180.734985062451
 21
465.8022780118177
 31
0.0
  0
LINE
  5
3F5
330
1F
100
AcDbEntity
  8
NoLayerName_006
  6
Continuous
 62
    60
370
    50
100
AcDbLine
 10
209.734985062451
 20
468.3022780118176
 30
0.0
 11
209.734985062451
 21
466.3022780118176
 31
0.0
  0
LINE
  5
3F6
330
1F
100
AcDbEntity
  8
NoLayerName_002
  6
Continuous
 62
     7
370
    50
100
AcDbLine
 10
218.2071488022758
 20
436.602278011772
 30
0.0
 11
218.2836997425736
 21
436.580045995772
 31
0.0
  0
LINE
  5
3F7
330
1F
100
AcDbEntity
  8
NoLayerName_002
  6
Continuous
 62
     7
370
    50
100
AcDbLine
 10
213.2628213226261
 20
436.602278011772
 30
0.0
 11
213.1862703823282
 21
436.580045995772
 31
0.0
  0
LINE
  5
3F8
330
1F
100
AcDbEntity
  8
NoLayerName_002
  6
Continuous
 62
     7
370
    50
100
AcDbLine
 10
213.1862703823285
 20
436.602278011772
 30
0.0
 11
213.1862703823285
 21
436.580045995772
 31
0.0
  0
LINE
  5
3F9
330
1F
100
AcDbEntity
  8
NoLayerName_002
  6
Continuous
 62
     7
370
    50
100
AcDbLine
 10
212.3272170784508
 20
436.7100459957721
 30
0.0
 11
211.9849850624509
 21
436.7100459957721
 31
0.0
  0
LINE
  5
3FA
330
1F
100
AcDbEntity
  8
NoLayerName_002
  6
Continuous
 62
     7
370
    50
100
AcDbLine
 10
212.254985062405
 20
436.7822780118179
 30
0.0
 11
212.2349850624507
 21
436.7822780118179
 31
0.0
  0
LINE
  5
3FB
330
1F
100
AcDbEntity
  8
NoLayerName_002
  6
Continuous
 62
     7
370
    50
100
AcDbLine
 10
212.2549850624968
 20
438.8222780118178
 30
0.0
 11
212.2349850624508
 21
438.8222780118178
 31
0.0
  0
LINE
  5
3FC
330
1F
100
AcDbEntity
  8
NoLayerName_002
  6
Continuous
 62
     7
370
    50
100
AcDbLine
 10
212.3272170785424
 20
438.8945100278636
 30
0.0
 11
211.9849850624509
 21
438.8945100278636
 31
0.0
  0
LINE
  5
3FD
330
1F
100
AcDbEntity
  8
NoLayerName_002
  6
Continuous
 62
     7
370
    50
100
AcDbLine
 10
213.1862703823285
 20
439.002278011772
 30
0.0
 11
213.1862703823285
 21
439.0245100278634
 31
0.0
  0
LINE
  5
3FE
330
1F
100
AcDbEntity
  8
NoLayerName_002
  6
Continuous
 62
     7
370
    50
100
AcDbLine
 10
213.2628213229409
 20
439.002278011772
 30
0.0
 11
213.1862703823282
 21
439.0245100278634
 31
0.0
  0
LINE
  5
3FF
330
1F
100
AcDbEntity
  8
NoLayerName_002
  6
Continuous
 62
     7
370
    50
100
AcDbLine
 10
218.2071488019609
 20
439.002278011772
 30
0.0
 11
218.2836997425736
 21
439.0245100278634
 31
0.0
  0
LINE
  5
400
330
1F
100
AcDbEntity
  8
NoLayerName_002
  6
Continuous
 62
     7
370
    50
100
AcDbLine
 10
218.2836997425734
 20
439.002278011772
 30
0.0
 11
218.2836997425734
 21
439.0245100278634
 31
0.0
  0
LINE
  5
401
330
1F
100
AcDbEntity
  8
NoLayerName_002
  6
Continuous
 62
     7
370
    50
100
AcDbLine
 10
219.1427530463594
 20
438.8945100278636
 30
0.0
 11
219.4849850624509
 21
438.8945100278636
 31
0.0
  0
LINE
  5
402
330
1F
100
AcDbEntity
  8
NoLayerName_002
  6
Continuous
 62
     7
370
    50
100
AcDbLine
 10
219.2149850624052
 20
438.8222780118178
 30
0.0
 11
219.2349850624511
 21
438.8222780118178
 31
0.0
  0
LINE
  5
403
330
1F
100
AcDbEntity
  8
NoLayerName_003
  6
CENTER
 62
    30
370
    25
100
AcDbLine
 10
215.734985062451
 20
472.3745679363341
 30
0.0
 11
215.734985062451
 21
438.6270003367987
 31
0.0
  0
ARC
  5
404
330
1F
100
AcDbEntity
  8
NoLayerName_006
  6
Continuous
 62
    60
370
    50
100
AcDbCircle
 10
230.234985062451
 20
454.8022780118177
 30
0.0
 40
8.7
100
AcDbArc
 50
162.0302461366283
 51
17.96975386337166
  0
LINE
  5
405
330
1F
100
AcDbEntity
  8
NoLayerName_006
  6
Continuous
 62
    60
370
    50
100
AcDbLine
 10
209.734985062451
 20
467.8022780118177
 30
0.0
 11
210.8027460076054
 21
467.0022780118177
 31
0.0
  0
LINE
  5
406
330
1F
100
AcDbEntity
  8
NoLayerName_006
  6
Continuous
 62
    60
370
    50
100
AcDbLine
 10
212.234985062451
 20
451.3022780118176
 30
0.0
 11
212.234985062451
 21
468.8022780118176
 31
0.0
  0
LINE
  5
407
330
1F
100
AcDbEntity
  8
NoLayerName_001
  6
Continuous
 62
     7
370
    50
100
AcDbLine
 10
238.1349850624509
 20
438.1022780118176
 30
0.0
 11
236.3349850624509
 21
438.1022780118176
 31
0.0
  0
LINE
  5
408
330
1F
100
AcDbEntity
  8
NoLayerName_001
  6
Continuous
 62
     7
370
    50
100
AcDbLine
 10
235.734985062451
 20
436.7022780118177
 30
0.0
 11
235.734985062451
 21
437.5022780118177
 31
0.0
  0
LINE
  5
409
330
1F
100
AcDbEntity
  8
NoLayerName_001
  6
Continuous
 62
     7
370
    50
100
AcDbLine
 10
238.734985062451
 20
437.5022780118177
 30
0.0
 11
238.734985062451
 21
436.7022780118177
 31
0.0
  0
ARC
  5
40A
330
1F
100
AcDbEntity
  8
NoLayerName_001
  6
Continuous
 62
     7
370
    50
100
AcDbCircle
 10
236.334985062451
 20
437.5022780118177
 30
0.0
 40
0.6
100
AcDbArc
 50
90.0
 51
180.0
  0
LINE
  5
40B
330
1F
100
AcDbEntity
  8
NoLayerName_001
  6
Continuous
 62
     7
370
    50
100
AcDbLine
 10
238.1349850624509
 20
436.1022780118176
 30
0.0
 11
236.3349850624509
 21
436.1022780118176
 31
0.0
  0
ARC
  5
40C
330
1F
100
AcDbEntity
  8
NoLayerName_001
  6
Continuous
 62
     7
370
    50
100
AcDbCircle
 10
236.334985062451
 20
436.7022780118177
 30
0.0
 40
0.6
100
AcDbArc
 50
180.0
 51
270.0
  0
ARC
  5
40D
330
1F
100
AcDbEntity
  8
NoLayerName_001
  6
Continuous
 62
     7
370
    50
100
AcDbCircle
 10
238.1349850624509
 20
436.7022780118177
 30
0.0
 40
0.6
100
AcDbArc
 50
270.0
 51
0.0
  0
ARC
  5
40E
330
1F
100
AcDbEntity
  8
NoLayerName_001
  6
Continuous
 62
     7
370
    50
100
AcDbCircle
 10
238.1349850624509
 20
437.5022780118177
 30
0.0
 40
0.6
100
AcDbArc
 50
360.0
 51
90.0
  0
LINE
  5
40F
330
1F
100
AcDbEntity
  8
NoLayerName_001
  6
Continuous
 62
    60
370
    50
100
AcDbLine
 10
210.7124308196098
 20
466.3022780118176
 30
0.0
 11
185.7575393052922
 21
466.3022780118176
 31
0.0
  0
LINE
  5
410
330
1F
100
AcDbEntity
  8
NoLayerName_001
  6
Continuous
 62
    60
370
    50
100
AcDbLine
 10
189.734985062451
 20
466.3022780118176
 30
0.0
 11
189.734985062451
 21
461.897664632967
 31
0.0
  0
LINE
  5
411
330
1F
100
AcDbEntity
  8
NoLayerName_006
  6
Continuous
 62
    60
370
    50
100
AcDbLine
 10
189.734985062451
 20
468.3022780118176
 30
0.0
 11
209.734985062451
 21
468.3022780118176
 31
0.0
  0
LINE
  5
412
330
1F
100
AcDbEntity
  8
NoLayerName_001
  6
Continuous
 62
     3
370
    50
100
AcDbLine
 10
189.734985062451
 20
468.3022780118176
 30
0.0
 11
185.5640067595876
 21
467.8022780118176
 31
0.0
  0
LINE
  5
413
330
1F
100
AcDbEntity
  8
NoLayerName_001
  6
Continuous
 62
    60
370
    50
100
AcDbLine
 10
188.234985062451
 20
445.6233696660174
 30
0.0
 11
188.234985062451
 21
448.1007158931012
 31
0.0
  0
LINE
  5
414
330
1F
100
AcDbEntity
  8
NoLayerName_001
  6
Continuous
 62
    60
370
    50
100
AcDbLine
 10
187.234985062451
 20
452.3815190789242
 30
0.0
 11
187.234985062451
 21
454.6563799780673
 31
0.0
  0
LINE
  5
415
330
1F
100
AcDbEntity
  8
NoLayerName_001
  6
Continuous
 62
    60
370
    50
100
AcDbLine
 10
187.234985062451
 20
447.9481760455681
 30
0.0
 11
187.234985062451
 21
450.2230369447113
 31
0.0
  0
LINE
  5
416
330
1F
100
AcDbEntity
  8
NoLayerName_001
  6
Continuous
 62
    60
370
    50
100
AcDbLine
 10
189.734985062451
 20
443.5563113194029
 30
0.0
 11
189.734985062451
 21
445.1378640088487
 31
0.0
  0
LINE
  5
417
330
1F
100
AcDbEntity
  8
NoLayerName_001
  6
Continuous
 62
    60
370
    50
100
AcDbLine
 10
189.734985062451
 20
453.1570017109168
 30
0.0
 11
189.734985062451
 21
449.4475543127185
 31
0.0
  0
LINE
  5
418
330
1F
100
AcDbEntity
  8
NoLayerName_001
  6
Continuous
 62
    60
370
    50
100
AcDbLine
 10
188.234985062451
 20
466.3022780118176
 30
0.0
 11
188.234985062451
 21
463.9748094586508
 31
0.0
  0
LINE
  5
419
330
1F
100
AcDbEntity
  8
NoLayerName_001
  6
Continuous
 62
    60
370
    50
100
AcDbLine
 10
188.234985062451
 20
468.1224640819573
 30
0.0
 11
188.234985062451
 21
468.8022780118176
 31
0.0
  0
LINE
  5
41A
330
1F
100
AcDbEntity
  8
NoLayerName_001
  6
Continuous
 62
    60
370
    50
100
AcDbLine
 10
188.234985062451
 20
459.7047971228305
 30
0.0
 11
188.234985062451
 21
454.5043343329553
 31
0.0
  0
LINE
  5
41B
330
1F
100
AcDbEntity
  8
NoLayerName_001
  6
Continuous
 62
    60
370
    50
100
AcDbLine
 10
186.234985062451
 20
466.3022780118176
 30
0.0
 11
186.234985062451
 21
462.6017705176876
 31
0.0
  0
LINE
  5
41C
330
1F
100
AcDbEntity
  8
NoLayerName_001
  6
Continuous
 62
    60
370
    50
100
AcDbLine
 10
186.234985062451
 20
467.8827121754769
 30
0.0
 11
186.234985062451
 21
468.8022780118177
 31
0.0
  0
ARC
  5
41D
330
1F
100
AcDbEntity
  8
NoLayerName_006
  6
Continuous
 62
    30
370
    50
100
AcDbCircle
 10
230.234985062451
 20
454.8022780118176
 30
0.0
 40
11.3
100
AcDbArc
 50
180.0
 51
0.0
  0
LINE
  5
41E
330
1F
100
AcDbEntity
  8
NoLayerName_001
  6
Continuous
 62
    60
370
    50
100
AcDbLine
 10
242.734985062451
 20
468.8022780118176
 30
0.0
 11
183.7349850624509
 21
468.8022780118176
 31
0.0
  0
LINE
  5
41F
330
1F
100
AcDbEntity
  8
NoLayerName_001
  6
Continuous
 62
    60
370
    50
100
AcDbLine
 10
244.734985062451
 20
432.8022780118176
 30
0.0
 11
180.734985062451
 21
432.8022780118176
 31
0.0
  0
LINE
  5
420
330
1F
100
AcDbEntity
  8
NoLayerName_006
  6
Continuous
 62
    30
370
    50
100
AcDbLine
 10
241.5349850624509
 20
454.8022780118176
 30
0.0
 11
241.5349850624509
 21
468.8022780118176
 31
0.0
  0
LINE
  5
421
330
1F
100
AcDbEntity
  8
NoLayerName_001
  6
Continuous
 62
     7
370
    50
100
AcDbLine
 10
221.734985062451
 20
466.3022780118176
 30
0.0
 11
221.734985062451
 21
468.3022780118176
 31
0.0
  0
LINE
  5
422
330
1F
100
AcDbEntity
  8
NoLayerName_006
  6
Continuous
 62
    30
370
    50
100
AcDbLine
 10
218.934985062451
 20
454.8022780118176
 30
0.0
 11
218.934985062451
 21
468.8022780118176
 31
0.0
  0
LINE
  5
423
330
1F
100
AcDbEntity
  8
NoLayerName_001
  6
Continuous
 62
     7
370
    50
100
AcDbLine
 10
239.5349850624509
 20
468.8022780118176
 30
0.0
 11
238.3127344598828
 21
464.0886218411695
 31
0.0
  0
ARC
  5
424
330
1F
100
AcDbEntity
  8
NoLayerName_006
  6
Continuous
 62
    60
370
    50
100
AcDbCircle
 10
249.734985062451
 20
461.1268333321545
 30
0.0
 40
11.8
100
AcDbArc
 50
165.4633627254019
 51
197.9697538633718
  0
LINE
  5
425
330
1F
100
AcDbEntity
  8
NoLayerName_006
  6
Continuous
 62
    60
370
    50
100
AcDbLine
 10
239.405335109387
 20
468.3022780118176
 30
0.0
 11
221.7349850624509
 21
468.3022780118176
 31
0.0
  0
LINE
  5
426
330
1F
100
AcDbEntity
  8
NoLayerName_001
  6
Continuous
 62
    60
370
    50
100
AcDbLine
 10
239.234985062451
 20
467.6453165439948
 30
0.0
 11
239.234985062451
 21
468.3022780118176
 31
0.0
  0
LINE
  5
427
330
1F
100
AcDbEntity
  8
NoLayerName_001
  6
Continuous
 62
    60
370
    50
100
AcDbLine
 10
238.8867352971313
 20
466.3022780118176
 30
0.0
 11
221.7349850624509
 21
466.3022780118176
 31
0.0
  0
LINE
  5
428
330
1F
100
AcDbEntity
  8
NoLayerName_001
  6
Continuous
 62
     7
370
    50
100
AcDbLine
 10
220.9349850624509
 20
468.8022780118176
 30
0.0
 11
222.157235665019
 21
464.0886218411695
 31
0.0
  0
ARC
  5
429
330
1F
100
AcDbEntity
  8
NoLayerName_006
  6
Continuous
 62
    60
370
    50
100
AcDbCircle
 10
210.734985062451
 20
461.1268333321545
 30
0.0
 40
11.8
100
AcDbArc
 50
342.0302461366283
 51
14.53663727459816
  0
LINE
  5
42A
330
1F
100
AcDbEntity
  8
NoLayerName_001
  6
Continuous
 62
     6
370
    50
100
AcDbLine
 10
237.9230910044446
 20
459.8022780118176
 30
0.0
 11
238.0095616925522
 21
459.8022780118176
 31
0.0
  0
LINE
  5
42B
330
1F
100
AcDbEntity
  8
NoLayerName_001
  6
Continuous
 62
     6
370
    50
100
AcDbLine
 10
222.5468791204573
 20
459.8022780118176
 30
0.0
 11
222.4604084323497
 21
459.8022780118176
 31
0.0
  0
HATCH
  5
42C
330
1F
100
AcDbEntity
  8
NoLayerName_001
  6
Continuous
 62
     7
370
    25
100
AcDbHatch
 10
0.0
 20
0.0
 30
0.0
210
0.0
220
0.0
230
1.0
  2
ANSI31
 70
     0
 71
     0
 91
        1
 92
        1
 93
        7
 72
     1
 10
181.734985062451
 20
385.8674254245892
 11
181.734985062451
 21
376.8674254245892
 72
     2
 10
183.734985062451
 20
385.8674254245892
 40
2.0
 50
90.0
 51
180.0
 73
     1
 72
     1
 10
242.234985062451
 20
387.8674254245892
 11
183.734985062451
 21
387.8674254245892
 72
     2
 10
242.234985062451
 20
385.8674254245892
 40
2.0
 50
0.0
 51
89.99999999999999
 73
     1
 72
     1
 10
244.234985062451
 20
373.8674254245892
 11
244.234985062451
 21
385.8674254245892
 72
     1
 10
184.734985062451
 20
373.8674254245892
 11
244.234985062451
 21
373.8674254245892
 72
     2
 10
184.734985062451
 20
376.8674254245892
 40
3.0
 50
180.0
 51
270.0
 73
     1
 97
        0
 75
     1
 76
     1
 52
90.0
 41
0.3150000000000025
 77
     0
 78
     1
 53
135.0
 43
0.0
 44
0.0
 45
-0.7071951695342015
 46
-0.7071951695342014
 79
     0
 98
        1
 10
184.3973543892151
 20
373.8864850480485
  0
HATCH
  5
42D
330
1F
100
AcDbEntity
  8
NoLayerName_001
  6
Continuous
 62
     7
370
    25
100
AcDbHatch
 10
0.0
 20
0.0
 30
0.0
210
0.0
220
0.0
230
1.0
  2
ANSI31
 70
     0
 71
     0
 91
        1
 92
        1
 93
        7
 72
     1
 10
244.234985062451
 20
300.8674254245891
 11
184.734985062451
 21
300.8674254245891
 72
     1
 10
244.234985062451
 20
288.8674254245891
 11
244.234985062451
 21
300.8674254245891
 72
     2
 10
242.234985062451
 20
288.8674254245891
 40
2.0
 50
270.0
 51
360.0
 73
     1
 72
     1
 10
183.734985062451
 20
286.8674254245891
 11
242.2349850624508
 21
286.8674254245891
 72
     2
 10
183.734985062451
 20
288.8674254245891
 40
2.0
 50
180.0
 51
270.0000000000016
 73
     1
 72
     1
 10
181.734985062451
 20
297.8674254245891
 11
181.734985062451
 21
288.8674254245893
 72
     2
 10
184.734985062451
 20
297.8674254245891
 40
3.0
 50
90.0
 51
180.0
 73
     1
 97
        0
 75
     1
 76
     1
 52
90.0
 41
0.3150000000000025
 77
     0
 78
     1
 53
135.0
 43
0.0
 44
0.0
 45
-0.7071951695342015
 46
-0.7071951695342014
 79
     0
 98
        1
 10
183.7351731455425
 20
286.8674254245891
  0
LINE
  5
42E
330
1F
100
AcDbEntity
  8
NoLayerName_003
  6
CENTER
 62
    30
370
    25
100
AcDbLine
 10
215.734985062451
 20
227.9975614041281
 30
0.0
 11
215.734985062451
 21
238.9619157805367
 31
0.0
  0
LINE
  5
42F
330
1F
100
AcDbEntity
  8
NoLayerName_003
  6
CENTER
 62
    30
370
    25
100
AcDbLine
 10
215.734985062451
 20
436.9775556867453
 30
0.0
 11
215.734985062451
 21
422.7106541670107
 31
0.0
  0
LINE
  5
430
330
1F
100
AcDbEntity
  8
NoLayerName_003
  6
CENTER
 62
    30
370
    25
100
AcDbLine
 10
215.734985062451
 20
282.1835752428664
 30
0.0
 11
215.734985062451
 21
393.7913616244143
 31
0.0
  0
LINE
  5
431
330
1F
100
AcDbEntity
  8
NoLayerName_007
  6
Continuous
 62
     7
370
    50
100
AcDbLine
 10
253.0
 20
54.0
 30
0.0
 11
372.0
 21
54.0
 31
0.0
  0
LINE
  5
432
330
1F
100
AcDbEntity
  8
NoLayerName_007
  6
Continuous
 62
     7
370
    50
100
AcDbLine
 10
372.0
 20
40.0
 30
0.0
 11
372.0
 21
80.0
 31
0.0
  0
LINE
  5
433
330
1F
100
AcDbEntity
  8
NoLayerName_007
  6
Continuous
 62
     7
370
    50
100
AcDbLine
 10
253.0
 20
40.0
 30
0.0
 11
253.0
 21
80.0
 31
0.0
  0
LINE
  5
434
330
1F
100
AcDbEntity
  8
NoLayerName_007
  6
Continuous
 62
     7
370
    50
100
AcDbLine
 10
275.0
 20
80.0
 30
0.0
 11
275.0
 21
40.0
 31
0.0
  0
LINE
  5
435
330
1F
100
AcDbEntity
  8
NoLayerName_007
  6
Continuous
 62
     7
370
    50
100
AcDbLine
 10
372.0
 20
40.0
 30
0.0
 11
253.0
 21
40.0
 31
0.0
  0
LINE
  5
436
330
1F
100
AcDbEntity
  8
NoLayerName_007
  6
Continuous
 62
     7
370
    50
100
AcDbLine
 10
372.0
 20
80.0
 30
0.0
 11
253.0
 21
80.0
 31
0.0
  0
MTEXT
  5
437
330
1F
100
AcDbEntity
  8
NoLayerName_007
 62
     7
370
    50
100
AcDbMText
 10
264.0000002573023
 20
67.0
 30
0.0
 40
4.413793169218918
 41
0.0
 71
     5
 72
     5
  1
\fＭＳ Ｐゴシック|b0|c128|p50;\A1;品　名
 73
     1
 44
1.299389002163688
1001
ACAD
1000
ACAD_MTEXT_DEFINED_HEIGHT_BEGIN
1070
    46
1040
3.200000047683716
1000
ACAD_MTEXT_DEFINED_HEIGHT_END
  0
MTEXT
  5
438
330
1F
100
AcDbEntity
  8
NoLayerName_001
 62
     7
370
    50
100
AcDbMText
 10
323.5000016365728
 20
67.00000004768371
 30
0.0
 40
4.413793169218918
 41
0.0
 71
     5
 72
     5
  1
\fＭＳ Ｐゴシック|b0|c128|p50;\A1;配ボックス　台付型　１個用\P［Ｂシリーズ］
 73
     1
 44
0.9745417487184044
1001
ACAD
1000
ACAD_MTEXT_DEFINED_HEIGHT_BEGIN
1070
    46
1040
6.400000095367432
1000
ACAD_MTEXT_DEFINED_HEIGHT_END
  0
MTEXT
  5
439
330
1F
100
AcDbEntity
  8
NoLayerName_001
 62
     7
370
    50
100
AcDbMText
 10
316.5000002154047
 20
47.00000004768371
 30
0.0
 40
4.413793169218918
 41
0.0
 71
     5
 72
     5
  1
\fＭＳ Ｐゴシック|b0|c128|p50;\A1;ＳＭ３６Ｂ
 73
     1
 44
1.299389002163688
1001
ACAD
1000
ACAD_MTEXT_DEFINED_HEIGHT_BEGIN
1070
    46
1040
3.200000047683716
1000
ACAD_MTEXT_DEFINED_HEIGHT_END
  0
MTEXT
  5
43A
330
1F
100
AcDbEntity
  8
NoLayerName_007
 62
     7
370
    50
100
AcDbMText
 10
255.2960004806519
 20
43.79999995231628
 30
0.0
 40
4.413793169218918
 41
0.0
 71
     7
 72
     5
  1
\fＭＳ Ｐゴシック|b0|c128|p50;\A1;品　番
 73
     1
 44
1.299389002163688
1001
ACAD
1000
ACAD_MTEXT_DEFINED_HEIGHT_BEGIN
1070
    46
1040
3.200000047683716
1000
ACAD_MTEXT_DEFINED_HEIGHT_END
  0
ENDSEC
  0
SECTION
  2
OBJECTS
  0
DICTIONARY
  5
C
330
0
100
AcDbDictionary
281
     1
  3
ACAD_GROUP
350
D
  3
ACAD_LAYOUT
350
1A
  3
ACAD_MATERIAL
350
3B
  3
ACAD_MLEADERSTYLE
350
45F
  3
ACAD_MLINESTYLE
350
17
  3
ACAD_PLOTSETTINGS
350
19
  3
ACAD_PLOTSTYLENAME
350
E
  3
ACAD_SCALELIST
350
43B
  3
ACAD_VISUALSTYLE
350
2A
  3
AcDbVariableDictionary
350
45D
  3
DWGPROPS
350
465
  0
DICTIONARY
  5
33E
330
33D
100
AcDbDictionary
280
     1
281
     1
  0
DICTIONARY
  5
D
102
{ACAD_REACTORS
330
C
102
}
330
C
100
AcDbDictionary
281
     1
  0
DICTIONARY
  5
1A
102
{ACAD_REACTORS
330
C
102
}
330
C
100
AcDbDictionary
281
     1
  3
Layout1
350
1E
  3
Model
350
22
  0
DICTIONARY
  5
3B
102
{ACAD_REACTORS
330
C
102
}
330
C
100
AcDbDictionary
281
     1
  3
ByBlock
350
3D
  3
ByLayer
350
3C
  3
Global
350
3E
  0
DICTIONARY
  5
45F
102
{ACAD_REACTORS
330
C
102
}
330
C
100
AcDbDictionary
281
     1
  0
DICTIONARY
  5
17
102
{ACAD_REACTORS
330
C
102
}
330
C
100
AcDbDictionary
281
     1
  3
Standard
350
18
  0
DICTIONARY
  5
19
102
{ACAD_REACTORS
330
C
102
}
330
C
100
AcDbDictionary
281
     1
  0
ACDBDICTIONARYWDFLT
  5
E
102
{ACAD_REACTORS
330
C
102
}
330
C
100
AcDbDictionary
281
     1
  3
Normal
350
F
100
AcDbDictionaryWithDefault
340
F
  0
DICTIONARY
  5
43B
102
{ACAD_REACTORS
330
C
102
}
330
C
100
AcDbDictionary
281
     1
  3
A0
350
43C
  3
A1
350
43D
  3
A2
350
43E
  3
A3
350
43F
  3
A4
350
440
  3
A5
350
441
  3
A6
350
442
  3
A7
350
443
  3
A8
350
444
  3
A9
350
445
  3
B0
350
446
  3
B1
350
447
  3
B2
350
448
  3
B3
350
449
  3
B4
350
44A
  3
B5
350
44B
  3
B6
350
44C
  3
B7
350
44D
  3
B8
350
44E
  3
B9
350
44F
  3
C0
350
450
  3
C1
350
451
  3
C2
350
452
  3
C3
350
453
  3
C4
350
454
  3
C5
350
455
  3
C6
350
456
  3
C7
350
457
  3
C8
350
458
  3
C9
350
459
  3
D0
350
45A
  3
D1
350
45B
  3
D2
350
45C
  0
DICTIONARY
  5
2A
102
{ACAD_REACTORS
330
C
102
}
330
C
100
AcDbDictionary
281
     1
  3
2dWireframe
350
2F
  3
3D Hidden
350
31
  3
3dWireframe
350
30
  3
Basic
350
32
  3
Brighten
350
36
  3
ColorChange
350
3A
  3
Conceptual
350
34
  3
Dim
350
35
  3
Facepattern
350
39
  3
Flat
350
2B
  3
FlatWithEdges
350
2C
  3
Gouraud
350
2D
  3
GouraudWithEdges
350
2E
  3
Linepattern
350
38
  3
Realistic
350
33
  3
Thicken
350
37
  0
DICTIONARY
  5
45D
102
{ACAD_REACTORS
330
C
102
}
330
C
100
AcDbDictionary
281
     1
  3
CANNOSCALE
350
462
  3
DIMASSOC
350
463
  3
HIDETEXT
350
464
  3
PSOLHEIGHT
350
461
  3
PSOLWIDTH
350
460
  0
XRECORD
  5
465
102
{ACAD_REACTORS
330
C
102
}
330
C
100
AcDbXrecord
280
     1
  1
DWGPROPS COOKIE
  2

  3

  4

  6
File was created by TR2_DExp
  7

  8

  9

300
=
301
=
302
=
303
=
304
=
305
=
306
=
307
=
308
=
309
=
 40
0.0
 41
2457922.346717002
 42
2457922.346717905
  1

 90
        0
  0
LAYOUT
  5
1E
102
{ACAD_REACTORS
330
1A
102
}
330
1A
100
AcDbPlotSettings
  1

  2
none_device
  4

  6

 40
0.0
 41
0.0
 42
0.0
 43
0.0
 44
0.0
 45
0.0
 46
0.0
 47
0.0
 48
0.0
 49
0.0
140
0.0
141
0.0
142
1.0
143
1.0
 70
   688
 72
     0
 73
     0
 74
     5
  7

 75
    16
147
1.0
148
0.0
149
0.0
100
AcDbLayout
  1
Layout1
 70
     0
 71
     1
 10
0.0
 20
0.0
 11
420.0
 21
297.0
 12
0.0
 22
0.0
 32
0.0
 14
1.000000000000000E+20
 24
1.000000000000000E+20
 34
1.000000000000000E+20
 15
-1.000000000000000E+20
 25
-1.000000000000000E+20
 35
-1.000000000000000E+20
146
0.0
 13
0.0
 23
0.0
 33
0.0
 16
1.0
 26
0.0
 36
0.0
 17
0.0
 27
1.0
 37
0.0
 76
     0
330
1B
  0
LAYOUT
  5
22
102
{ACAD_REACTORS
330
1A
102
}
330
1A
100
AcDbPlotSettings
  1

  2
none_device
  4

  6

 40
0.0
 41
0.0
 42
0.0
 43
0.0
 44
0.0
 45
0.0
 46
0.0
 47
0.0
 48
0.0
 49
0.0
140
0.0
141
0.0
142
1.0
143
1.0
 70
  1712
 72
     0
 73
     0
 74
     0
  7

 75
     0
147
1.0
148
0.0
149
0.0
100
AcDbLayout
  1
Model
 70
     1
 71
     0
 10
98.70735865027495
 20
40.0
 11
372.0
 21
472.3745679363341
 12
0.0
 22
0.0
 32
0.0
 14
98.70735865027495
 24
40.0
 34
0.0
 15
372.0
 25
472.3745679363341
 35
0.0
146
0.0
 13
0.0
 23
0.0
 33
0.0
 16
1.0
 26
0.0
 36
0.0
 17
0.0
 27
1.0
 37
0.0
 76
     0
330
1F
331
29
  0
MATERIAL
  5
3D
102
{ACAD_REACTORS
330
3B
102
}
102
{ACAD_XDICTIONARY
360
48B
102
}
330
3B
100
AcDbMaterial
  1
ByBlock
  0
MATERIAL
  5
3C
102
{ACAD_REACTORS
330
3B
102
}
102
{ACAD_XDICTIONARY
360
489
102
}
330
3B
100
AcDbMaterial
  1
ByLayer
  0
MATERIAL
  5
3E
102
{ACAD_REACTORS
330
3B
102
}
102
{ACAD_XDICTIONARY
360
48D
102
}
330
3B
100
AcDbMaterial
  1
Global
  0
MLINESTYLE
  5
18
102
{ACAD_REACTORS
330
17
102
}
330
17
100
AcDbMlineStyle
  2
Standard
 70
     0
  3

 62
   256
 51
90.0
 52
90.0
 71
     2
 49
0.5
 62
   256
  6
BYLAYER
 49
-0.5
 62
   256
  6
BYLAYER
  0
ACDBPLACEHOLDER
  5
F
102
{ACAD_REACTORS
330
E
102
}
330
E
  0
SCALE
  5
43C
102
{ACAD_REACTORS
330
43B
102
}
330
43B
100
AcDbScale
 70
     0
300
1:1
140
1.0
141
1.0
290
     1
  0
SCALE
  5
43D
102
{ACAD_REACTORS
330
43B
102
}
330
43B
100
AcDbScale
 70
     0
300
1:2
140
1.0
141
2.0
290
     0
  0
SCALE
  5
43E
102
{ACAD_REACTORS
330
43B
102
}
330
43B
100
AcDbScale
 70
     0
300
1:4
140
1.0
141
4.0
290
     0
  0
SCALE
  5
43F
102
{ACAD_REACTORS
330
43B
102
}
330
43B
100
AcDbScale
 70
     0
300
1:5
140
1.0
141
5.0
290
     0
  0
SCALE
  5
440
102
{ACAD_REACTORS
330
43B
102
}
330
43B
100
AcDbScale
 70
     0
300
1:8
140
1.0
141
8.0
290
     0
  0
SCALE
  5
441
102
{ACAD_REACTORS
330
43B
102
}
330
43B
100
AcDbScale
 70
     0
300
1:10
140
1.0
141
10.0
290
     0
  0
SCALE
  5
442
102
{ACAD_REACTORS
330
43B
102
}
330
43B
100
AcDbScale
 70
     0
300
1:16
140
1.0
141
16.0
290
     0
  0
SCALE
  5
443
102
{ACAD_REACTORS
330
43B
102
}
330
43B
100
AcDbScale
 70
     0
300
1:20
140
1.0
141
20.0
290
     0
  0
SCALE
  5
444
102
{ACAD_REACTORS
330
43B
102
}
330
43B
100
AcDbScale
 70
     0
300
1:30
140
1.0
141
30.0
290
     0
  0
SCALE
  5
445
102
{ACAD_REACTORS
330
43B
102
}
330
43B
100
AcDbScale
 70
     0
300
1:40
140
1.0
141
40.0
290
     0
  0
SCALE
  5
446
102
{ACAD_REACTORS
330
43B
102
}
330
43B
100
AcDbScale
 70
     0
300
1:50
140
1.0
141
50.0
290
     0
  0
SCALE
  5
447
102
{ACAD_REACTORS
330
43B
102
}
330
43B
100
AcDbScale
 70
     0
300
1:100
140
1.0
141
100.0
290
     0
  0
SCALE
  5
448
102
{ACAD_REACTORS
330
43B
102
}
330
43B
100
AcDbScale
 70
     0
300
2:1
140
2.0
141
1.0
290
     0
  0
SCALE
  5
449
102
{ACAD_REACTORS
330
43B
102
}
330
43B
100
AcDbScale
 70
     0
300
4:1
140
4.0
141
1.0
290
     0
  0
SCALE
  5
44A
102
{ACAD_REACTORS
330
43B
102
}
330
43B
100
AcDbScale
 70
     0
300
8:1
140
8.0
141
1.0
290
     0
  0
SCALE
  5
44B
102
{ACAD_REACTORS
330
43B
102
}
330
43B
100
AcDbScale
 70
     0
300
10:1
140
10.0
141
1.0
290
     0
  0
SCALE
  5
44C
102
{ACAD_REACTORS
330
43B
102
}
330
43B
100
AcDbScale
 70
     0
300
100:1
140
100.0
141
1.0
290
     0
  0
SCALE
  5
44D
102
{ACAD_REACTORS
330
43B
102
}
330
43B
100
AcDbScale
 70
     0
300
1/128" = 1'-0"
140
0.0078125
141
12.0
290
     0
  0
SCALE
  5
44E
102
{ACAD_REACTORS
330
43B
102
}
330
43B
100
AcDbScale
 70
     0
300
1/64" = 1'-0"
140
0.015625
141
12.0
290
     0
  0
SCALE
  5
44F
102
{ACAD_REACTORS
330
43B
102
}
330
43B
100
AcDbScale
 70
     0
300
1/32" = 1'-0"
140
0.03125
141
12.0
290
     0
  0
SCALE
  5
450
102
{ACAD_REACTORS
330
43B
102
}
330
43B
100
AcDbScale
 70
     0
300
1/16" = 1'-0"
140
0.0625
141
12.0
290
     0
  0
SCALE
  5
451
102
{ACAD_REACTORS
330
43B
102
}
330
43B
100
AcDbScale
 70
     0
300
3/32" = 1'-0"
140
0.09375
141
12.0
290
     0
  0
SCALE
  5
452
102
{ACAD_REACTORS
330
43B
102
}
330
43B
100
AcDbScale
 70
     0
300
1/8" = 1'-0"
140
0.125
141
12.0
290
     0
  0
SCALE
  5
453
102
{ACAD_REACTORS
330
43B
102
}
330
43B
100
AcDbScale
 70
     0
300
3/16" = 1'-0"
140
0.1875
141
12.0
290
     0
  0
SCALE
  5
454
102
{ACAD_REACTORS
330
43B
102
}
330
43B
100
AcDbScale
 70
     0
300
1/4" = 1'-0"
140
0.25
141
12.0
290
     0
  0
SCALE
  5
455
102
{ACAD_REACTORS
330
43B
102
}
330
43B
100
AcDbScale
 70
     0
300
3/8" = 1'-0"
140
0.375
141
12.0
290
     0
  0
SCALE
  5
456
102
{ACAD_REACTORS
330
43B
102
}
330
43B
100
AcDbScale
 70
     0
300
1/2" = 1'-0"
140
0.5
141
12.0
290
     0
  0
SCALE
  5
457
102
{ACAD_REACTORS
330
43B
102
}
330
43B
100
AcDbScale
 70
     0
300
3/4" = 1'-0"
140
0.75
141
12.0
290
     0
  0
SCALE
  5
458
102
{ACAD_REACTORS
330
43B
102
}
330
43B
100
AcDbScale
 70
     0
300
1" = 1'-0"
140
1.0
141
12.0
290
     0
  0
SCALE
  5
459
102
{ACAD_REACTORS
330
43B
102
}
330
43B
100
AcDbScale
 70
     0
300
1-1/2" = 1'-0"
140
1.5
141
12.0
290
     0
  0
SCALE
  5
45A
102
{ACAD_REACTORS
330
43B
102
}
330
43B
100
AcDbScale
 70
     0
300
3" = 1'-0"
140
3.0
141
12.0
290
     0
  0
SCALE
  5
45B
102
{ACAD_REACTORS
330
43B
102
}
330
43B
100
AcDbScale
 70
     0
300
6" = 1'-0"
140
6.0
141
12.0
290
     0
  0
SCALE
  5
45C
102
{ACAD_REACTORS
330
43B
102
}
330
43B
100
AcDbScale
 70
     0
300
1'-0" = 1'-0"
140
12.0
141
12.0
290
     0
  0
VISUALSTYLE
  5
2F
102
{ACAD_REACTORS
330
2A
102
}
102
{ACAD_XDICTIONARY
360
471
102
}
330
2A
100
AcDbVisualStyle
  2
2dWireframe
 70
     4
 71
     0
 72
     2
 73
     0
 90
        0
 40
-0.6
 41
-30.0
 62
     5
 63
     7
 74
     1
 91
        4
 64
     7
 65
   257
 75
     1
175
     1
 42
1.0
 92
        0
 66
   257
 43
1.0
 76
     1
 77
     6
 78
     2
 67
     7
 79
     5
170
     0
171
     0
290
     0
174
     0
 93
        1
 44
0.0
173
     0
291
     0
 45
0.0
1001
ACAD
1000
AcDbSavedByObjectVersion
1070
     0
  0
VISUALSTYLE
  5
31
102
{ACAD_REACTORS
330
2A
102
}
102
{ACAD_XDICTIONARY
360
475
102
}
330
2A
100
AcDbVisualStyle
  2
3D Hidden
 70
     6
 71
     1
 72
     2
 73
     2
 90
        0
 40
-0.6
 41
-30.0
 62
     5
 63
     7
 74
     2
 91
        2
 64
     7
 65
   257
 75
     2
175
     1
 42
40.0
 92
        0
 66
   257
 43
1.0
 76
     1
 77
     6
 78
     2
 67
     7
 79
     3
170
     0
171
     0
290
     0
174
     0
 93
        1
 44
0.0
173
     0
291
     0
 45
0.0
1001
ACAD
1000
AcDbSavedByObjectVersion
1070
     0
  0
VISUALSTYLE
  5
30
102
{ACAD_REACTORS
330
2A
102
}
102
{ACAD_XDICTIONARY
360
473
102
}
330
2A
100
AcDbVisualStyle
  2
3dWireframe
 70
     5
 71
     0
 72
     2
 73
     0
 90
        0
 40
-0.6
 41
-30.0
 62
     5
 63
     7
 74
     1
 91
        4
 64
     7
 65
   257
 75
     1
175
     1
 42
1.0
 92
        0
 66
   257
 43
1.0
 76
     1
 77
     6
 78
     2
 67
     7
 79
     5
170
     0
171
     0
290
     0
174
     0
 93
        1
 44
0.0
173
     0
291
     0
 45
0.0
1001
ACAD
1000
AcDbSavedByObjectVersion
1070
     0
  0
VISUALSTYLE
  5
32
102
{ACAD_REACTORS
330
2A
102
}
102
{ACAD_XDICTIONARY
360
477
102
}
330
2A
100
AcDbVisualStyle
  2
Basic
 70
     7
 71
     1
 72
     0
 73
     1
 90
        0
 40
-0.6
 41
-30.0
 62
     5
 63
     7
 74
     0
 91
        4
 64
     7
 65
   257
 75
     1
175
     1
 42
1.0
 92
        8
 66
     7
 43
1.0
 76
     1
 77
     6
 78
     2
 67
     7
 79
     5
170
     0
171
     0
290
     0
174
     0
 93
        1
 44
0.0
173
     0
291
     1
 45
0.0
1001
ACAD
1000
AcDbSavedByObjectVersion
1070
     0
  0
VISUALSTYLE
  5
36
102
{ACAD_REACTORS
330
2A
102
}
102
{ACAD_XDICTIONARY
360
47F
102
}
330
2A
100
AcDbVisualStyle
  2
Brighten
 70
    12
 71
     2
 72
     2
 73
     0
 90
        0
 40
-0.6
 41
-30.0
 62
     5
 63
     7
 74
     1
 91
        4
 64
     7
 65
   257
 75
     1
175
     1
 42
1.0
 92
        8
 66
     7
 43
1.0
 76
     1
 77
     6
 78
     2
 67
     7
 79
     5
170
     0
171
     0
290
     0
174
     0
 93
        1
 44
50.0
173
     0
291
     1
 45
0.0
1001
ACAD
1000
AcDbSavedByObjectVersion
1070
     0
  0
VISUALSTYLE
  5
3A
102
{ACAD_REACTORS
330
2A
102
}
102
{ACAD_XDICTIONARY
360
487
102
}
330
2A
100
AcDbVisualStyle
  2
ColorChange
 70
    16
 71
     2
 72
     2
 73
     3
 90
        0
 40
-0.6
 41
-30.0
 62
     5
 63
     8
 74
     1
 91
        4
 64
     7
 65
   257
 75
     1
175
     1
 42
1.0
 92
        8
 66
     8
 43
1.0
 76
     1
 77
     6
 78
     2
 67
     7
 79
     5
170
     0
171
     0
290
     0
174
     0
 93
        1
 44
0.0
173
     0
291
     1
 45
0.0
1001
ACAD
1000
AcDbSavedByObjectVersion
1070
     0
  0
VISUALSTYLE
  5
34
102
{ACAD_REACTORS
330
2A
102
}
102
{ACAD_XDICTIONARY
360
47B
102
}
330
2A
100
AcDbVisualStyle
  2
Conceptual
 70
     9
 71
     3
 72
     2
 73
     0
 90
        0
 40
-0.6
 41
-30.0
 62
     5
 63
     7
 74
     2
 91
        2
 64
     7
 65
   257
 75
     1
175
     1
 42
40.0
 92
        8
 66
     7
 43
1.0
 76
     1
 77
     6
 78
     2
 67
     7
 79
     3
170
     0
171
     0
290
     0
174
     0
 93
        1
 44
0.0
173
     0
291
     0
 45
0.0
1001
ACAD
1000
AcDbSavedByObjectVersion
1070
     0
  0
VISUALSTYLE
  5
35
102
{ACAD_REACTORS
330
2A
102
}
102
{ACAD_XDICTIONARY
360
47D
102
}
330
2A
100
AcDbVisualStyle
  2
Dim
 70
    11
 71
     2
 72
     2
 73
     0
 90
        0
 40
-0.6
 41
-30.0
 62
     5
 63
     7
 74
     1
 91
        4
 64
     7
 65
   257
 75
     1
175
     1
 42
1.0
 92
        8
 66
     7
 43
1.0
 76
     1
 77
     6
 78
     2
 67
     7
 79
     5
170
     0
171
     0
290
     0
174
     0
 93
        1
 44
-50.0
173
     0
291
     1
 45
0.0
1001
ACAD
1000
AcDbSavedByObjectVersion
1070
     0
  0
VISUALSTYLE
  5
39
102
{ACAD_REACTORS
330
2A
102
}
102
{ACAD_XDICTIONARY
360
485
102
}
330
2A
100
AcDbVisualStyle
  2
Facepattern
 70
    15
 71
     2
 72
     2
 73
     0
 90
        0
 40
-0.6
 41
-30.0
 62
     5
 63
     7
 74
     1
 91
        4
 64
     7
 65
   257
 75
     1
175
     1
 42
1.0
 92
        8
 66
     7
 43
1.0
 76
     1
 77
     6
 78
     2
 67
     7
 79
     5
170
     0
171
     0
290
     0
174
     0
 93
        1
 44
0.0
173
     0
291
     1
 45
0.0
1001
ACAD
1000
AcDbSavedByObjectVersion
1070
     0
  0
VISUALSTYLE
  5
2B
102
{ACAD_REACTORS
330
2A
102
}
102
{ACAD_XDICTIONARY
360
469
102
}
330
2A
100
AcDbVisualStyle
  2
Flat
 70
     0
 71
     2
 72
     1
 73
     1
 90
        2
 40
-0.6
 41
30.0
 62
     5
 63
     7
 74
     0
 91
        4
 64
     7
 65
   257
 75
     1
175
     1
 42
1.0
 92
        8
 66
     7
 43
1.0
 76
     1
 77
     6
 78
     2
 67
     7
 79
     5
170
     0
171
     0
290
     0
174
     0
 93
       13
 44
0.0
173
     0
291
     1
 45
0.0
1001
ACAD
1000
AcDbSavedByObjectVersion
1070
     0
  0
VISUALSTYLE
  5
2C
102
{ACAD_REACTORS
330
2A
102
}
102
{ACAD_XDICTIONARY
360
46B
102
}
330
2A
100
AcDbVisualStyle
  2
FlatWithEdges
 70
     1
 71
     2
 72
     1
 73
     1
 90
        2
 40
-0.6
 41
30.0
 62
     5
 63
     7
 74
     1
 91
        4
 64
     7
 65
   257
 75
     1
175
     1
 42
1.0
 92
        0
 66
   257
 43
1.0
 76
     1
 77
     6
 78
     2
 67
     7
 79
     5
170
     0
171
     0
290
     0
174
     0
 93
       13
 44
0.0
173
     0
291
     1
 45
0.0
1001
ACAD
1000
AcDbSavedByObjectVersion
1070
     0
  0
VISUALSTYLE
  5
2D
102
{ACAD_REACTORS
330
2A
102
}
102
{ACAD_XDICTIONARY
360
46D
102
}
330
2A
100
AcDbVisualStyle
  2
Gouraud
 70
     2
 71
     2
 72
     2
 73
     1
 90
        2
 40
-0.6
 41
30.0
 62
     5
 63
     7
 74
     0
 91
        4
 64
     7
 65
   257
 75
     1
175
     1
 42
1.0
 92
        0
 66
     7
 43
1.0
 76
     1
 77
     6
 78
     2
 67
     7
 79
     5
170
     0
171
     0
290
     0
174
     0
 93
       13
 44
0.0
173
     0
291
     1
 45
0.0
1001
ACAD
1000
AcDbSavedByObjectVersion
1070
     0
  0
VISUALSTYLE
  5
2E
102
{ACAD_REACTORS
330
2A
102
}
102
{ACAD_XDICTIONARY
360
46F
102
}
330
2A
100
AcDbVisualStyle
  2
GouraudWithEdges
 70
     3
 71
     2
 72
     2
 73
     1
 90
        2
 40
-0.6
 41
30.0
 62
     5
 63
     7
 74
     1
 91
        4
 64
     7
 65
   257
 75
     1
175
     1
 42
1.0
 92
        0
 66
   257
 43
1.0
 76
     1
 77
     6
 78
     2
 67
     7
 79
     5
170
     0
171
     0
290
     0
174
     0
 93
       13
 44
0.0
173
     0
291
     1
 45
0.0
1001
ACAD
1000
AcDbSavedByObjectVersion
1070
     0
  0
VISUALSTYLE
  5
38
102
{ACAD_REACTORS
330
2A
102
}
102
{ACAD_XDICTIONARY
360
483
102
}
330
2A
100
AcDbVisualStyle
  2
Linepattern
 70
    14
 71
     2
 72
     2
 73
     0
 90
        0
 40
-0.6
 41
-30.0
 62
     5
 63
     7
 74
     1
 91
        4
 64
     7
 65
   257
 75
     7
175
     7
 42
1.0
 92
        8
 66
     7
 43
1.0
 76
     1
 77
     6
 78
     2
 67
     7
 79
     5
170
     0
171
     0
290
     0
174
     0
 93
        1
 44
0.0
173
     0
291
     1
 45
0.0
1001
ACAD
1000
AcDbSavedByObjectVersion
1070
     0
  0
VISUALSTYLE
  5
33
102
{ACAD_REACTORS
330
2A
102
}
102
{ACAD_XDICTIONARY
360
479
102
}
330
2A
100
AcDbVisualStyle
  2
Realistic
 70
     8
 71
     2
 72
     2
 73
     0
 90
        0
 40
-0.6
 41
-30.0
 62
     5
 63
     7
 74
     1
 91
        0
 64
     7
 65
   257
 75
     1
175
     1
 42
1.0
 92
        8
 66
     8
 43
1.0
 76
     1
 77
     6
 78
     2
 67
     7
 79
     5
170
     0
171
     0
290
     0
174
     0
 93
       13
 44
0.0
173
     0
291
     0
 45
0.0
1001
ACAD
1000
AcDbSavedByObjectVersion
1070
     0
  0
VISUALSTYLE
  5
37
102
{ACAD_REACTORS
330
2A
102
}
102
{ACAD_XDICTIONARY
360
481
102
}
330
2A
100
AcDbVisualStyle
  2
Thicken
 70
    13
 71
     2
 72
     2
 73
     0
 90
        0
 40
-0.6
 41
-30.0
 62
     5
 63
     7
 74
     1
 91
        4
 64
     7
 65
   257
 75
     1
175
     1
 42
1.0
 92
       12
 66
     7
 43
1.0
 76
     1
 77
     6
 78
     2
 67
     7
 79
     5
170
     0
171
     0
290
     0
174
     0
 93
        1
 44
0.0
173
     0
291
     1
 45
0.0
1001
ACAD
1000
AcDbSavedByObjectVersion
1070
     0
  0
DICTIONARYVAR
  5
462
102
{ACAD_REACTORS
330
45D
102
}
330
45D
100
DictionaryVariables
280
     0
  1
1:1
  0
DICTIONARYVAR
  5
463
102
{ACAD_REACTORS
330
45D
102
}
330
45D
100
DictionaryVariables
280
     0
  1
2
  0
DICTIONARYVAR
  5
464
102
{ACAD_REACTORS
330
45D
102
}
330
45D
100
DictionaryVariables
280
     0
  1
1
  0
DICTIONARYVAR
  5
461
102
{ACAD_REACTORS
330
45D
102
}
330
45D
100
DictionaryVariables
280
     0
  1
80.000000
  0
DICTIONARYVAR
  5
460
102
{ACAD_REACTORS
330
45D
102
}
330
45D
100
DictionaryVariables
280
     0
  1
5.000000
  0
DICTIONARY
  5
48B
330
3D
100
AcDbDictionary
280
     1
281
     1
  3
ACAD_XREC_ROUNDTRIP
360
48C
  0
DICTIONARY
  5
489
330
3C
100
AcDbDictionary
280
     1
281
     1
  3
ACAD_XREC_ROUNDTRIP
360
48A
  0
DICTIONARY
  5
48D
330
3E
100
AcDbDictionary
280
     1
281
     1
  3
ACAD_XREC_ROUNDTRIP
360
48E
  0
DICTIONARY
  5
471
330
2F
100
AcDbDictionary
280
     1
281
     1
  3
ACAD_XREC_ROUNDTRIP
360
472
  0
DICTIONARY
  5
475
330
31
100
AcDbDictionary
280
     1
281
     1
  3
ACAD_XREC_ROUNDTRIP
360
476
  0
DICTIONARY
  5
473
330
30
100
AcDbDictionary
280
     1
281
     1
  3
ACAD_XREC_ROUNDTRIP
360
474
  0
DICTIONARY
  5
477
330
32
100
AcDbDictionary
280
     1
281
     1
  3
ACAD_XREC_ROUNDTRIP
360
478
  0
DICTIONARY
  5
47F
330
36
100
AcDbDictionary
280
     1
281
     1
  3
ACAD_XREC_ROUNDTRIP
360
480
  0
DICTIONARY
  5
487
330
3A
100
AcDbDictionary
280
     1
281
     1
  3
ACAD_XREC_ROUNDTRIP
360
488
  0
DICTIONARY
  5
47B
330
34
100
AcDbDictionary
280
     1
281
     1
  3
ACAD_XREC_ROUNDTRIP
360
47C
  0
DICTIONARY
  5
47D
330
35
100
AcDbDictionary
280
     1
281
     1
  3
ACAD_XREC_ROUNDTRIP
360
47E
  0
DICTIONARY
  5
485
330
39
100
AcDbDictionary
280
     1
281
     1
  3
ACAD_XREC_ROUNDTRIP
360
486
  0
DICTIONARY
  5
469
330
2B
100
AcDbDictionary
280
     1
281
     1
  3
ACAD_XREC_ROUNDTRIP
360
46A
  0
DICTIONARY
  5
46B
330
2C
100
AcDbDictionary
280
     1
281
     1
  3
ACAD_XREC_ROUNDTRIP
360
46C
  0
DICTIONARY
  5
46D
330
2D
100
AcDbDictionary
280
     1
281
     1
  3
ACAD_XREC_ROUNDTRIP
360
46E
  0
DICTIONARY
  5
46F
330
2E
100
AcDbDictionary
280
     1
281
     1
  3
ACAD_XREC_ROUNDTRIP
360
470
  0
DICTIONARY
  5
483
330
38
100
AcDbDictionary
280
     1
281
     1
  3
ACAD_XREC_ROUNDTRIP
360
484
  0
DICTIONARY
  5
479
330
33
100
AcDbDictionary
280
     1
281
     1
  3
ACAD_XREC_ROUNDTRIP
360
47A
  0
DICTIONARY
  5
481
330
37
100
AcDbDictionary
280
     1
281
     1
  3
ACAD_XREC_ROUNDTRIP
360
482
  0
XRECORD
  5
48C
102
{ACAD_REACTORS
330
48B
102
}
330
48B
100
AcDbXrecord
280
     1
102
MATERIAL
148
0.0
149
0.0
149
0.0
 93
        0
 94
      127
282
     0
 72
     1
 77
     1
171
     1
175
     1
179
     1
273
     0
  0
XRECORD
  5
48A
102
{ACAD_REACTORS
330
489
102
}
330
489
100
AcDbXrecord
280
     1
102
MATERIAL
148
0.0
149
0.0
149
0.0
 93
        0
 94
      127
282
     0
 72
     1
 77
     1
171
     1
175
     1
179
     1
273
     0
  0
XRECORD
  5
48E
102
{ACAD_REACTORS
330
48D
102
}
330
48D
100
AcDbXrecord
280
     1
102
MATERIAL
148
0.0
149
0.0
149
0.0
 93
        0
 94
      127
282
     0
 72
     1
 77
     1
171
     1
175
     1
179
     1
273
     0
  0
XRECORD
  5
472
102
{ACAD_REACTORS
330
471
102
}
330
471
100
AcDbXrecord
280
     1
102
RTVSPropertyOp0
 70
     1
102
RTVSPropertyOp1
 70
     1
102
RTVSPropertyOp2
 70
     1
102
RTVSPropertyOp3
 70
     1
102
RTVSPropertyOp4
 70
     1
102
RTVSPropertyOp5
 70
     1
102
RTVSPropertyOp6
 70
     1
102
RTVSPropertyOp7
 70
     1
102
RTVSPropertyOp8
 70
     1
102
RTVSPropertyOp9
 70
     1
102
RTVSPropertyOp10
 70
     1
102
RTVSPropertyOp11
 70
     1
102
RTVSPropertyOp12
 70
     1
102
RTVSPropertyOp13
 70
     1
102
RTVSPropertyOp14
 70
     1
102
RTVSPropertyOp15
 70
     1
102
RTVSPropertyOp16
 70
     1
102
RTVSPropertyOp17
 70
     1
102
RTVSPropertyOp18
 70
     1
102
RTVSPropertyOp19
 70
     1
102
RTVSPropertyOp20
 70
     1
102
RTVSPropertyOp21
 70
     1
102
RTVSPropertyOp22
 70
     1
102
RTVSPropertyOp23
 70
     1
102
RTVSPropertyOp24
 70
     1
102
RTVSPropertyOp25
 70
     1
102
RTVSPropertyOp26
 70
     1
102
RTVSPropertyOp27
 70
     1
102
RTVSPropertyOp28
 70
     1
102
RTVSPropertyOp29
 70
     1
102
RTVSPropertyOp30
 70
     1
102
RTVSPropertyOp31
 70
     1
102
RTVSPropertyOp32
 70
     1
  0
XRECORD
  5
476
102
{ACAD_REACTORS
330
475
102
}
330
475
100
AcDbXrecord
280
     1
102
RTVSPropertyOp0
 70
     1
102
RTVSPropertyOp1
 70
     1
102
RTVSPropertyOp2
 70
     1
102
RTVSPropertyOp3
 70
     1
102
RTVSPropertyOp4
 70
     1
102
RTVSPropertyOp5
 70
     1
102
RTVSPropertyOp6
 70
     1
102
RTVSPropertyOp7
 70
     1
102
RTVSPropertyOp8
 70
     1
102
RTVSPropertyOp9
 70
     1
102
RTVSPropertyOp10
 70
     1
102
RTVSPropertyOp11
 70
     1
102
RTVSPropertyOp12
 70
     1
102
RTVSPropertyOp13
 70
     1
102
RTVSPropertyOp14
 70
     1
102
RTVSPropertyOp15
 70
     1
102
RTVSPropertyOp16
 70
     1
102
RTVSPropertyOp17
 70
     1
102
RTVSPropertyOp18
 70
     1
102
RTVSPropertyOp19
 70
     1
102
RTVSPropertyOp20
 70
     1
102
RTVSPropertyOp21
 70
     1
102
RTVSPropertyOp22
 70
     1
102
RTVSPropertyOp23
 70
     1
102
RTVSPropertyOp24
 70
     1
102
RTVSPropertyOp25
 70
     1
102
RTVSPropertyOp26
 70
     1
102
RTVSPropertyOp27
 70
     1
102
RTVSPropertyOp28
 70
     1
102
RTVSPropertyOp29
 70
     1
102
RTVSPropertyOp30
 70
     1
102
RTVSPropertyOp31
 70
     1
102
RTVSPropertyOp32
 70
     1
  0
XRECORD
  5
474
102
{ACAD_REACTORS
330
473
102
}
330
473
100
AcDbXrecord
280
     1
102
RTVSPropertyOp0
 70
     1
102
RTVSPropertyOp1
 70
     1
102
RTVSPropertyOp2
 70
     1
102
RTVSPropertyOp3
 70
     1
102
RTVSPropertyOp4
 70
     1
102
RTVSPropertyOp5
 70
     1
102
RTVSPropertyOp6
 70
     1
102
RTVSPropertyOp7
 70
     1
102
RTVSPropertyOp8
 70
     1
102
RTVSPropertyOp9
 70
     1
102
RTVSPropertyOp10
 70
     1
102
RTVSPropertyOp11
 70
     1
102
RTVSPropertyOp12
 70
     1
102
RTVSPropertyOp13
 70
     1
102
RTVSPropertyOp14
 70
     1
102
RTVSPropertyOp15
 70
     1
102
RTVSPropertyOp16
 70
     1
102
RTVSPropertyOp17
 70
     1
102
RTVSPropertyOp18
 70
     1
102
RTVSPropertyOp19
 70
     1
102
RTVSPropertyOp20
 70
     1
102
RTVSPropertyOp21
 70
     1
102
RTVSPropertyOp22
 70
     1
102
RTVSPropertyOp23
 70
     1
102
RTVSPropertyOp24
 70
     1
102
RTVSPropertyOp25
 70
     1
102
RTVSPropertyOp26
 70
     1
102
RTVSPropertyOp27
 70
     1
102
RTVSPropertyOp28
 70
     1
102
RTVSPropertyOp29
 70
     1
102
RTVSPropertyOp30
 70
     1
102
RTVSPropertyOp31
 70
     1
102
RTVSPropertyOp32
 70
     1
  0
XRECORD
  5
478
102
{ACAD_REACTORS
330
477
102
}
330
477
100
AcDbXrecord
280
     1
102
RTVSPropertyOp0
 70
     1
102
RTVSPropertyOp1
 70
     1
102
RTVSPropertyOp2
 70
     1
102
RTVSPropertyOp3
 70
     1
102
RTVSPropertyOp4
 70
     1
102
RTVSPropertyOp5
 70
     1
102
RTVSPropertyOp6
 70
     1
102
RTVSPropertyOp7
 70
     1
102
RTVSPropertyOp8
 70
     1
102
RTVSPropertyOp9
 70
     1
102
RTVSPropertyOp10
 70
     1
102
RTVSPropertyOp11
 70
     1
102
RTVSPropertyOp12
 70
     1
102
RTVSPropertyOp13
 70
     1
102
RTVSPropertyOp14
 70
     1
102
RTVSPropertyOp15
 70
     1
102
RTVSPropertyOp16
 70
     1
102
RTVSPropertyOp17
 70
     1
102
RTVSPropertyOp18
 70
     1
102
RTVSPropertyOp19
 70
     1
102
RTVSPropertyOp20
 70
     1
102
RTVSPropertyOp21
 70
     1
102
RTVSPropertyOp22
 70
     1
102
RTVSPropertyOp23
 70
     1
102
RTVSPropertyOp24
 70
     1
102
RTVSPropertyOp25
 70
     1
102
RTVSPropertyOp26
 70
     1
102
RTVSPropertyOp27
 70
     1
102
RTVSPropertyOp28
 70
     1
102
RTVSPropertyOp29
 70
     1
102
RTVSPropertyOp30
 70
     1
102
RTVSPropertyOp31
 70
     1
102
RTVSPropertyOp32
 70
     1
  0
XRECORD
  5
480
102
{ACAD_REACTORS
330
47F
102
}
330
47F
100
AcDbXrecord
280
     1
102
RTVSPropertyOp0
 70
     1
102
RTVSPropertyOp1
 70
     1
102
RTVSPropertyOp2
 70
     1
102
RTVSPropertyOp3
 70
     1
102
RTVSPropertyOp4
 70
     1
102
RTVSPropertyOp5
 70
     1
102
RTVSPropertyOp6
 70
     1
102
RTVSPropertyOp7
 70
     1
102
RTVSPropertyOp8
 70
     1
102
RTVSPropertyOp9
 70
     1
102
RTVSPropertyOp10
 70
     1
102
RTVSPropertyOp11
 70
     1
102
RTVSPropertyOp12
 70
     1
102
RTVSPropertyOp13
 70
     1
102
RTVSPropertyOp14
 70
     1
102
RTVSPropertyOp15
 70
     1
102
RTVSPropertyOp16
 70
     1
102
RTVSPropertyOp17
 70
     1
102
RTVSPropertyOp18
 70
     1
102
RTVSPropertyOp19
 70
     1
102
RTVSPropertyOp20
 70
     1
102
RTVSPropertyOp21
 70
     1
102
RTVSPropertyOp22
 70
     1
102
RTVSPropertyOp23
 70
     1
102
RTVSPropertyOp24
 70
     1
102
RTVSPropertyOp25
 70
     1
102
RTVSPropertyOp26
 70
     1
102
RTVSPropertyOp27
 70
     1
102
RTVSPropertyOp28
 70
     1
102
RTVSPropertyOp29
 70
     1
102
RTVSPropertyOp30
 70
     1
102
RTVSPropertyOp31
 70
     1
102
RTVSPropertyOp32
 70
     1
  0
XRECORD
  5
488
102
{ACAD_REACTORS
330
487
102
}
330
487
100
AcDbXrecord
280
     1
102
RTVSPropertyOp0
 70
     1
102
RTVSPropertyOp1
 70
     1
102
RTVSPropertyOp2
 70
     1
102
RTVSPropertyOp3
 70
     1
102
RTVSPropertyOp4
 70
     1
102
RTVSPropertyOp5
 70
     1
102
RTVSPropertyOp6
 70
     1
102
RTVSPropertyOp7
 70
     1
102
RTVSPropertyOp8
 70
     1
102
RTVSPropertyOp9
 70
     1
102
RTVSPropertyOp10
 70
     1
102
RTVSPropertyOp11
 70
     1
102
RTVSPropertyOp12
 70
     1
102
RTVSPropertyOp13
 70
     1
102
RTVSPropertyOp14
 70
     1
102
RTVSPropertyOp15
 70
     1
102
RTVSPropertyOp16
 70
     1
102
RTVSPropertyOp17
 70
     1
102
RTVSPropertyOp18
 70
     1
102
RTVSPropertyOp19
 70
     1
102
RTVSPropertyOp20
 70
     1
102
RTVSPropertyOp21
 70
     1
102
RTVSPropertyOp22
 70
     1
102
RTVSPropertyOp23
 70
     1
102
RTVSPropertyOp24
 70
     1
102
RTVSPropertyOp25
 70
     1
102
RTVSPropertyOp26
 70
     1
102
RTVSPropertyOp27
 70
     1
102
RTVSPropertyOp28
 70
     1
102
RTVSPropertyOp29
 70
     1
102
RTVSPropertyOp30
 70
     1
102
RTVSPropertyOp31
 70
     1
102
RTVSPropertyOp32
 70
     1
  0
XRECORD
  5
47C
102
{ACAD_REACTORS
330
47B
102
}
330
47B
100
AcDbXrecord
280
     1
102
RTVSPropertyOp0
 70
     1
102
RTVSPropertyOp1
 70
     1
102
RTVSPropertyOp2
 70
     1
102
RTVSPropertyOp3
 70
     1
102
RTVSPropertyOp4
 70
     1
102
RTVSPropertyOp5
 70
     1
102
RTVSPropertyOp6
 70
     1
102
RTVSPropertyOp7
 70
     1
102
RTVSPropertyOp8
 70
     1
102
RTVSPropertyOp9
 70
     1
102
RTVSPropertyOp10
 70
     1
102
RTVSPropertyOp11
 70
     1
102
RTVSPropertyOp12
 70
     1
102
RTVSPropertyOp13
 70
     1
102
RTVSPropertyOp14
 70
     1
102
RTVSPropertyOp15
 70
     1
102
RTVSPropertyOp16
 70
     1
102
RTVSPropertyOp17
 70
     1
102
RTVSPropertyOp18
 70
     1
102
RTVSPropertyOp19
 70
     1
102
RTVSPropertyOp20
 70
     1
102
RTVSPropertyOp21
 70
     1
102
RTVSPropertyOp22
 70
     1
102
RTVSPropertyOp23
 70
     1
102
RTVSPropertyOp24
 70
     1
102
RTVSPropertyOp25
 70
     1
102
RTVSPropertyOp26
 70
     1
102
RTVSPropertyOp27
 70
     1
102
RTVSPropertyOp28
 70
     1
102
RTVSPropertyOp29
 70
     1
102
RTVSPropertyOp30
 70
     1
102
RTVSPropertyOp31
 70
     1
102
RTVSPropertyOp32
 70
     1
  0
XRECORD
  5
47E
102
{ACAD_REACTORS
330
47D
102
}
330
47D
100
AcDbXrecord
280
     1
102
RTVSPropertyOp0
 70
     1
102
RTVSPropertyOp1
 70
     1
102
RTVSPropertyOp2
 70
     1
102
RTVSPropertyOp3
 70
     1
102
RTVSPropertyOp4
 70
     1
102
RTVSPropertyOp5
 70
     1
102
RTVSPropertyOp6
 70
     1
102
RTVSPropertyOp7
 70
     1
102
RTVSPropertyOp8
 70
     1
102
RTVSPropertyOp9
 70
     1
102
RTVSPropertyOp10
 70
     1
102
RTVSPropertyOp11
 70
     1
102
RTVSPropertyOp12
 70
     1
102
RTVSPropertyOp13
 70
     1
102
RTVSPropertyOp14
 70
     1
102
RTVSPropertyOp15
 70
     1
102
RTVSPropertyOp16
 70
     1
102
RTVSPropertyOp17
 70
     1
102
RTVSPropertyOp18
 70
     1
102
RTVSPropertyOp19
 70
     1
102
RTVSPropertyOp20
 70
     1
102
RTVSPropertyOp21
 70
     1
102
RTVSPropertyOp22
 70
     1
102
RTVSPropertyOp23
 70
     1
102
RTVSPropertyOp24
 70
     1
102
RTVSPropertyOp25
 70
     1
102
RTVSPropertyOp26
 70
     1
102
RTVSPropertyOp27
 70
     1
102
RTVSPropertyOp28
 70
     1
102
RTVSPropertyOp29
 70
     1
102
RTVSPropertyOp30
 70
     1
102
RTVSPropertyOp31
 70
     1
102
RTVSPropertyOp32
 70
     1
  0
XRECORD
  5
486
102
{ACAD_REACTORS
330
485
102
}
330
485
100
AcDbXrecord
280
     1
102
RTVSPropertyOp0
 70
     1
102
RTVSPropertyOp1
 70
     1
102
RTVSPropertyOp2
 70
     1
102
RTVSPropertyOp3
 70
     1
102
RTVSPropertyOp4
 70
     1
102
RTVSPropertyOp5
 70
     1
102
RTVSPropertyOp6
 70
     1
102
RTVSPropertyOp7
 70
     1
102
RTVSPropertyOp8
 70
     1
102
RTVSPropertyOp9
 70
     1
102
RTVSPropertyOp10
 70
     1
102
RTVSPropertyOp11
 70
     1
102
RTVSPropertyOp12
 70
     1
102
RTVSPropertyOp13
 70
     1
102
RTVSPropertyOp14
 70
     1
102
RTVSPropertyOp15
 70
     1
102
RTVSPropertyOp16
 70
     1
102
RTVSPropertyOp17
 70
     1
102
RTVSPropertyOp18
 70
     1
102
RTVSPropertyOp19
 70
     1
102
RTVSPropertyOp20
 70
     1
102
RTVSPropertyOp21
 70
     1
102
RTVSPropertyOp22
 70
     1
102
RTVSPropertyOp23
 70
     1
102
RTVSPropertyOp24
 70
     1
102
RTVSPropertyOp25
 70
     1
102
RTVSPropertyOp26
 70
     1
102
RTVSPropertyOp27
 70
     1
102
RTVSPropertyOp28
 70
     1
102
RTVSPropertyOp29
 70
     1
102
RTVSPropertyOp30
 70
     1
102
RTVSPropertyOp31
 70
     1
102
RTVSPropertyOp32
 70
     1
  0
XRECORD
  5
46A
102
{ACAD_REACTORS
330
469
102
}
330
469
100
AcDbXrecord
280
     1
102
RTVSPropertyOp0
 70
     1
102
RTVSPropertyOp1
 70
     1
102
RTVSPropertyOp2
 70
     1
102
RTVSPropertyOp3
 70
     1
102
RTVSPropertyOp4
 70
     1
102
RTVSPropertyOp5
 70
     1
102
RTVSPropertyOp6
 70
     1
102
RTVSPropertyOp7
 70
     1
102
RTVSPropertyOp8
 70
     1
102
RTVSPropertyOp9
 70
     1
102
RTVSPropertyOp10
 70
     1
102
RTVSPropertyOp11
 70
     1
102
RTVSPropertyOp12
 70
     1
102
RTVSPropertyOp13
 70
     1
102
RTVSPropertyOp14
 70
     1
102
RTVSPropertyOp15
 70
     1
102
RTVSPropertyOp16
 70
     1
102
RTVSPropertyOp17
 70
     1
102
RTVSPropertyOp18
 70
     1
102
RTVSPropertyOp19
 70
     1
102
RTVSPropertyOp20
 70
     1
102
RTVSPropertyOp21
 70
     1
102
RTVSPropertyOp22
 70
     1
102
RTVSPropertyOp23
 70
     1
102
RTVSPropertyOp24
 70
     1
102
RTVSPropertyOp25
 70
     1
102
RTVSPropertyOp26
 70
     1
102
RTVSPropertyOp27
 70
     1
102
RTVSPropertyOp28
 70
     1
102
RTVSPropertyOp29
 70
     1
102
RTVSPropertyOp30
 70
     1
102
RTVSPropertyOp31
 70
     1
102
RTVSPropertyOp32
 70
     1
  0
XRECORD
  5
46C
102
{ACAD_REACTORS
330
46B
102
}
330
46B
100
AcDbXrecord
280
     1
102
RTVSPropertyOp0
 70
     1
102
RTVSPropertyOp1
 70
     1
102
RTVSPropertyOp2
 70
     1
102
RTVSPropertyOp3
 70
     1
102
RTVSPropertyOp4
 70
     1
102
RTVSPropertyOp5
 70
     1
102
RTVSPropertyOp6
 70
     1
102
RTVSPropertyOp7
 70
     1
102
RTVSPropertyOp8
 70
     1
102
RTVSPropertyOp9
 70
     1
102
RTVSPropertyOp10
 70
     1
102
RTVSPropertyOp11
 70
     1
102
RTVSPropertyOp12
 70
     1
102
RTVSPropertyOp13
 70
     1
102
RTVSPropertyOp14
 70
     1
102
RTVSPropertyOp15
 70
     1
102
RTVSPropertyOp16
 70
     1
102
RTVSPropertyOp17
 70
     1
102
RTVSPropertyOp18
 70
     1
102
RTVSPropertyOp19
 70
     1
102
RTVSPropertyOp20
 70
     1
102
RTVSPropertyOp21
 70
     1
102
RTVSPropertyOp22
 70
     1
102
RTVSPropertyOp23
 70
     1
102
RTVSPropertyOp24
 70
     1
102
RTVSPropertyOp25
 70
     1
102
RTVSPropertyOp26
 70
     1
102
RTVSPropertyOp27
 70
     1
102
RTVSPropertyOp28
 70
     1
102
RTVSPropertyOp29
 70
     1
102
RTVSPropertyOp30
 70
     1
102
RTVSPropertyOp31
 70
     1
102
RTVSPropertyOp32
 70
     1
  0
XRECORD
  5
46E
102
{ACAD_REACTORS
330
46D
102
}
330
46D
100
AcDbXrecord
280
     1
102
RTVSPropertyOp0
 70
     1
102
RTVSPropertyOp1
 70
     1
102
RTVSPropertyOp2
 70
     1
102
RTVSPropertyOp3
 70
     1
102
RTVSPropertyOp4
 70
     1
102
RTVSPropertyOp5
 70
     1
102
RTVSPropertyOp6
 70
     1
102
RTVSPropertyOp7
 70
     1
102
RTVSPropertyOp8
 70
     1
102
RTVSPropertyOp9
 70
     1
102
RTVSPropertyOp10
 70
     1
102
RTVSPropertyOp11
 70
     1
102
RTVSPropertyOp12
 70
     1
102
RTVSPropertyOp13
 70
     1
102
RTVSPropertyOp14
 70
     1
102
RTVSPropertyOp15
 70
     1
102
RTVSPropertyOp16
 70
     1
102
RTVSPropertyOp17
 70
     1
102
RTVSPropertyOp18
 70
     1
102
RTVSPropertyOp19
 70
     1
102
RTVSPropertyOp20
 70
     1
102
RTVSPropertyOp21
 70
     1
102
RTVSPropertyOp22
 70
     1
102
RTVSPropertyOp23
 70
     1
102
RTVSPropertyOp24
 70
     1
102
RTVSPropertyOp25
 70
     1
102
RTVSPropertyOp26
 70
     1
102
RTVSPropertyOp27
 70
     1
102
RTVSPropertyOp28
 70
     1
102
RTVSPropertyOp29
 70
     1
102
RTVSPropertyOp30
 70
     1
102
RTVSPropertyOp31
 70
     1
102
RTVSPropertyOp32
 70
     1
  0
XRECORD
  5
470
102
{ACAD_REACTORS
330
46F
102
}
330
46F
100
AcDbXrecord
280
     1
102
RTVSPropertyOp0
 70
     1
102
RTVSPropertyOp1
 70
     1
102
RTVSPropertyOp2
 70
     1
102
RTVSPropertyOp3
 70
     1
102
RTVSPropertyOp4
 70
     1
102
RTVSPropertyOp5
 70
     1
102
RTVSPropertyOp6
 70
     1
102
RTVSPropertyOp7
 70
     1
102
RTVSPropertyOp8
 70
     1
102
RTVSPropertyOp9
 70
     1
102
RTVSPropertyOp10
 70
     1
102
RTVSPropertyOp11
 70
     1
102
RTVSPropertyOp12
 70
     1
102
RTVSPropertyOp13
 70
     1
102
RTVSPropertyOp14
 70
     1
102
RTVSPropertyOp15
 70
     1
102
RTVSPropertyOp16
 70
     1
102
RTVSPropertyOp17
 70
     1
102
RTVSPropertyOp18
 70
     1
102
RTVSPropertyOp19
 70
     1
102
RTVSPropertyOp20
 70
     1
102
RTVSPropertyOp21
 70
     1
102
RTVSPropertyOp22
 70
     1
102
RTVSPropertyOp23
 70
     1
102
RTVSPropertyOp24
 70
     1
102
RTVSPropertyOp25
 70
     1
102
RTVSPropertyOp26
 70
     1
102
RTVSPropertyOp27
 70
     1
102
RTVSPropertyOp28
 70
     1
102
RTVSPropertyOp29
 70
     1
102
RTVSPropertyOp30
 70
     1
102
RTVSPropertyOp31
 70
     1
102
RTVSPropertyOp32
 70
     1
  0
XRECORD
  5
484
102
{ACAD_REACTORS
330
483
102
}
330
483
100
AcDbXrecord
280
     1
102
RTVSPropertyOp0
 70
     1
102
RTVSPropertyOp1
 70
     1
102
RTVSPropertyOp2
 70
     1
102
RTVSPropertyOp3
 70
     1
102
RTVSPropertyOp4
 70
     1
102
RTVSPropertyOp5
 70
     1
102
RTVSPropertyOp6
 70
     1
102
RTVSPropertyOp7
 70
     1
102
RTVSPropertyOp8
 70
     1
102
RTVSPropertyOp9
 70
     1
102
RTVSPropertyOp10
 70
     1
102
RTVSPropertyOp11
 70
     1
102
RTVSPropertyOp12
 70
     1
102
RTVSPropertyOp13
 70
     1
102
RTVSPropertyOp14
 70
     1
102
RTVSPropertyOp15
 70
     1
102
RTVSPropertyOp16
 70
     1
102
RTVSPropertyOp17
 70
     1
102
RTVSPropertyOp18
 70
     1
102
RTVSPropertyOp19
 70
     1
102
RTVSPropertyOp20
 70
     1
102
RTVSPropertyOp21
 70
     1
102
RTVSPropertyOp22
 70
     1
102
RTVSPropertyOp23
 70
     1
102
RTVSPropertyOp24
 70
     1
102
RTVSPropertyOp25
 70
     1
102
RTVSPropertyOp26
 70
     1
102
RTVSPropertyOp27
 70
     1
102
RTVSPropertyOp28
 70
     1
102
RTVSPropertyOp29
 70
     1
102
RTVSPropertyOp30
 70
     1
102
RTVSPropertyOp31
 70
     1
102
RTVSPropertyOp32
 70
     1
  0
XRECORD
  5
47A
102
{ACAD_REACTORS
330
479
102
}
330
479
100
AcDbXrecord
280
     1
102
RTVSPropertyOp0
 70
     1
102
RTVSPropertyOp1
 70
     1
102
RTVSPropertyOp2
 70
     1
102
RTVSPropertyOp3
 70
     1
102
RTVSPropertyOp4
 70
     1
102
RTVSPropertyOp5
 70
     1
102
RTVSPropertyOp6
 70
     1
102
RTVSPropertyOp7
 70
     1
102
RTVSPropertyOp8
 70
     1
102
RTVSPropertyOp9
 70
     1
102
RTVSPropertyOp10
 70
     1
102
RTVSPropertyOp11
 70
     1
102
RTVSPropertyOp12
 70
     1
102
RTVSPropertyOp13
 70
     1
102
RTVSPropertyOp14
 70
     1
102
RTVSPropertyOp15
 70
     1
102
RTVSPropertyOp16
 70
     1
102
RTVSPropertyOp17
 70
     1
102
RTVSPropertyOp18
 70
     1
102
RTVSPropertyOp19
 70
     1
102
RTVSPropertyOp20
 70
     1
102
RTVSPropertyOp21
 70
     1
102
RTVSPropertyOp22
 70
     1
102
RTVSPropertyOp23
 70
     1
102
RTVSPropertyOp24
 70
     1
102
RTVSPropertyOp25
 70
     1
102
RTVSPropertyOp26
 70
     1
102
RTVSPropertyOp27
 70
     1
102
RTVSPropertyOp28
 70
     1
102
RTVSPropertyOp29
 70
     1
102
RTVSPropertyOp30
 70
     1
102
RTVSPropertyOp31
 70
     1
102
RTVSPropertyOp32
 70
     1
  0
XRECORD
  5
482
102
{ACAD_REACTORS
330
481
102
}
330
481
100
AcDbXrecord
280
     1
102
RTVSPropertyOp0
 70
     1
102
RTVSPropertyOp1
 70
     1
102
RTVSPropertyOp2
 70
     1
102
RTVSPropertyOp3
 70
     1
102
RTVSPropertyOp4
 70
     1
102
RTVSPropertyOp5
 70
     1
102
RTVSPropertyOp6
 70
     1
102
RTVSPropertyOp7
 70
     1
102
RTVSPropertyOp8
 70
     1
102
RTVSPropertyOp9
 70
     1
102
RTVSPropertyOp10
 70
     1
102
RTVSPropertyOp11
 70
     1
102
RTVSPropertyOp12
 70
     1
102
RTVSPropertyOp13
 70
     1
102
RTVSPropertyOp14
 70
     1
102
RTVSPropertyOp15
 70
     1
102
RTVSPropertyOp16
 70
     1
102
RTVSPropertyOp17
 70
     1
102
RTVSPropertyOp18
 70
     1
102
RTVSPropertyOp19
 70
     1
102
RTVSPropertyOp20
 70
     1
102
RTVSPropertyOp21
 70
     1
102
RTVSPropertyOp22
 70
     1
102
RTVSPropertyOp23
 70
     1
102
RTVSPropertyOp24
 70
     1
102
RTVSPropertyOp25
 70
     1
102
RTVSPropertyOp26
 70
     1
102
RTVSPropertyOp27
 70
     1
102
RTVSPropertyOp28
 70
     1
102
RTVSPropertyOp29
 70
     1
102
RTVSPropertyOp30
 70
     1
102
RTVSPropertyOp31
 70
     1
102
RTVSPropertyOp32
 70
     1
  0
ENDSEC
  0
SECTION
  2
THUMBNAILIMAGE
 90
    16364
310
28000000B40000005500000001000800000000000000000000000000000000000000000000000000FFFFFF00FF000000FFFF000000FF000000FFFF000000FF00FF00FF000000000080808000C0C0C000FF000000FF7F7F00A5000000A55252007F0000007F3F3F004C0000004C2626002600000026131300FF3F0000FF9F7F
310
00A5290000A56752007F1F00007F4F3F004C1300004C2F26002609000026171300FF7F0000FFBF7F00A5520000A57C52007F3F00007F5F3F004C2600004C39260026130000261C1300FFBF0000FFDF7F00A57C0000A59152007F5F00007F6F3F004C3900004C422600261C000026211300FFFF0000FFFF7F00A5A50000A5A5
310
52007F7F00007F7F3F004C4C00004C4C26002626000026261300BFFF0000DFFF7F007CA5000091A552005F7F00006F7F3F00394C0000424C26001C260000212613007FFF0000BFFF7F0052A500007CA552003F7F00005F7F3F00264C0000394C2600132600001C2613003FFF00009FFF7F0029A5000067A552001F7F00004F
310
7F3F00134C00002F4C2600092600001726130000FF00007FFF7F0000A5000052A55200007F00003F7F3F00004C0000264C2600002600001326130000FF3F007FFF9F0000A5290052A56700007F1F003F7F4F00004C1300264C2F00002609001326170000FF7F007FFFBF0000A5520052A57C00007F3F003F7F5F00004C2600
310
264C39000026130013261C0000FFBF007FFFDF0000A57C0052A59100007F5F003F7F6F00004C3900264C420000261C001326210000FFFF007FFFFF0000A5A50052A5A500007F7F003F7F7F00004C4C00264C4C00002626001326260000BFFF007FDFFF00007CA5005291A500005F7F003F6F7F0000394C0026424C00001C26
310
0013212600007FFF007FBFFF000052A500527CA500003F7F003F5F7F0000264C0026394C0000132600131C2600003FFF007F9FFF000029A5005267A500001F7F003F4F7F0000134C00262F4C0000092600131726000000FF007F7FFF000000A5005252A50000007F003F3F7F0000004C0026264C0000002600131326003F00
310
FF009F7FFF002900A5006752A5001F007F004F3F7F0013004C002F264C0009002600171326007F00FF00BF7FFF005200A5007C52A5003F007F005F3F7F0026004C0039264C00130026001C132600BF00FF00DF7FFF007C00A5009152A5005F007F006F3F7F0039004C0042264C001C00260021132600FF00FF00FF7FFF00A5
310
00A500A552A5007F007F007F3F7F004C004C004C264C002600260026132600FF00BF00FF7FDF00A5007C00A55291007F005F007F3F6F004C0039004C26420026001C0026132100FF007F00FF7FBF00A5005200A5527C007F003F007F3F5F004C0026004C2639002600130026131C00FF003F00FF7F9F00A5002900A5526700
310
7F001F007F3F4F004C0013004C262F002600090026131700000000002D2D2D005B5B5B0089898900B7B7B700B3B3B30000000000000000000000000000000000000000000000000000000000000000000000000000000000000000000000000000000000000000000000000000000000000000000000000000000000000000
310
00000000000000000000000000000000000000000000000000000000000000000000000000000000000000000000000000000000000000000000000000000000000000000000000000000000000000000000000000000000000000000000000000000000000000000000000000000000000000000000000000000000000000
310
00000000000000000000000000000000000000000000000000000000000000000000000000000000000000000000000000000000000000000000000000000000000000000000000000000000000000000000000000000000000000000000000000000000000000000000000000000000000000000000000000000000000000
310
00000000000000000000000000000000000000000000000000000000000000000000000000000000000000000000000000000000000000000000000000000000000000000000000000000000000000000000000000000000000000000000000000000000000000000000000000000000000000000000000000000000000000
310
00000000000000000000000000000000000000000000000000000000000000000000000000000000000000000000000000000000000000000000000000000000000000000000000000000000000000000000000000000000000000000000000000000000000000000000000000000000000000000000000000000000000000
310
00000000000000000000000000000000000000000000000000000000000000000000000000000000000000000000000000000000000000000000000000000000000000000000000000000000000000000000000000000000000000000000000000000000000000000000000000000000000000000000000000000000000000
310
00000000000000000000000000000000000000000000000000000000000000000000000000000000000000000000000000000000000000000000000000000000000000000000000000000000000000000000000000000000000000000000000000000007070707070707070707070707070707070707070707000000000000
310
00000000000000000000000000000000000000000000000000000000000000000000000000000000000000000000000000000000000000000000000000000000000000000000000000000000000000000000000000000000000000000000000000000000000000000000000000000000000000000000000000000000000000
310
00000000000000000000000000000000000000000000000000070707070700000000000700070000000000000000070000000000000000000000000000000000000000000000000000000000000000000000000000000000000000000000000000000000000000000000000000000000000000000000000000000000000000
310
00000000000000000000000000000000000000000000000000000000000000000000000000000000000000000000000000000000000000000000000000000000000000000000000000000000000007070707070707070707070707070707070707070707000000000000000000000000000000000000000000000000000000
310
00000000000000000000000000000000000000000000000000000000000000000000000000000000000000000000000000000000000000000000000000000000000000000000000000000000000000000000000000000000000000000000000000000000000000000000000000000000000000000000000000000000000000
310
00000000070707070700000000000707070707070700000000070000000000000000000000000000000000000000000000000000000000000000000000000000000000000000000000000000000000000000000000000000000000000000000000000000000000000000000000000000000000000000000000000000000000
310
00000000000000000000000000000000000000000000000000000000000000000000000000000000000000000000000000000000000000000007070707070007070707070707070707070707070007000000000000000000000000000000000000000000000000000000000000000000000000000000000000000000000000
310
00000000000000000000000000000000000000000000000000000000000000000000000000000000000000000000000000000000000000000000000000000000000000000000000000000000000000000000000000000000000000000000000000000000000000000000000000000700000007000707070707070707070707
310
07070700070000000000000000000000000000000000000000000000000000000000000000000000000000000000000000000000000000000000000000000000000000000000000000000000000000000000000000000000000000000000000000000000000000000000000000000000000000000000000000000000000000
310
00000000000000000000000000000000000000000000000000000000000000000000000007000000070000000000000000000000000000000007000000000000000000000000000000000000000000000000000000000000000000000000000000000000000000000000000000000000000000000000000000000000000000
310
00000000000000000000000000000000000000000000000000000000000000000000000000000000000000000000000000000000000000000000000000000000000000000000000000000000000000000000000000000000000707070707070707070707070707070707070707070700000000000000000000000000000000
310
00000000000000000000000000000000000000000000000000000000000000000000000000000000000000000000000000000000000000000000000000000000000000000000000000000000000000000000000000000000000000000000000000000000000000000000000000000000000000000000000000000000000000
310
00000000000000000000000000000000000000000000000000000000000000000000000000000000000000000000000000000000000000000000000000000000000000000000000000000000000000000000000000000000000000000000000000000000000000000000000000000000000000000000000000000000000000
310
00000000000000000000000000000000000000000000000000000000000000000000000000000000000000000000000000000000000000000000000000000000000000000000000000000000000000000000000000000000000000000000000000000000000000000000000000000000000000000000000000000000000000
310
00000000000000000000000000000000000000000000000000000000000000000000000000000000000000000000000000000000000000000000000000000000000000000000000000000000000000000000000000000000000000000000000000000000000000000000000000000000000000000000000000000000000000
310
00000000000000000000000000000000000000000000000000000000000000000000000000000000000000000000000000000000000000000000000000000000000000000000000000000000000000000000000000000000000000000000000000000000000000000000000000000000000000000000000000000000000000
310
00000000000000000000000000000000000000000000000000000000000000000000000000000000000000000000000000000000000000000000000000000000000000000000000000000000000000000000000000000000000000000000000000000000000000000000000000000000000000000000000000000000000000
310
00000000000000000000000000000000000000000000000000000000000000000000000000000000000000000000000000000000000000000000000000000000000000000000000000000000000000000000000000000000000000000000000000000000000000000000000000000000000000000000000000000000000000
310
00000000000000000000000000000000000000000000000000000000000000000000000000000000000000000000000000000000000000000000000000000000000000000000000000000000000000000000000000000000000000000000000000000000000000000000000000000000000000000000000000000000000000
310
00000000000000000000000000000000000000000000000000000000000000000000000000000000000000000000000000000000000000000000000000000000000000000000000000000000000000000000000000000000000000000000000000000000000000000000000000000000000000000000000000000000000000
310
00000000000000000000000000000000000000000000000000000000000000000000000000000000000000000000000000000000000000000000000000000000000000000000000000000000000000000000000000000000000000000000000000000000000000000000000000000000000000000000000000000000000000
310
00000000000000000000000000000000000000000000000000000000000000000000000000000000000000000000000000000000000000000000000000000000000000000000000000000000000000000000000000000000000000000000000000000000000000000000000000000000000000000000000000000000000000
310
00000000000000000000000000000000000000000000000000000000000000000000000000000000000000000000000000000000000000000000000000000000000000000000000000000000000000000000000000000000000000000000000000000000000000000000000000000000000000000000000000000000000000
310
00000000000000000000000000000000000000000000000000000000000000000000000000000000000000000000000000000000000000000000000000000000000000000000000000000000000000000000000000000000000000000000000000000000000000000000000000000000000000000000000000000000000000
310
00000000000000000000000000000000000000000000000000000000000000000000000000000000000000000000000000000000000000000000000000000000000000000000000000000000000000000000000000000000000000000000000000000000000000000000000000000000000000000000000000000000000000
310
00000000000000000000000000000000000000000000000000000000000000000000000000000000000000000000000000000000000000000000000000000000000000000000000000000000000000000000000000000000000000000000000000000000000000000000000000000000000000000000000000000000000000
310
00000000000000000000000000000000000000000000000000000000000000000000000000000000000000000000000000000000000000000000000000000000000000000000000000000000000000000000000000000000000000000000000000000000000000000000000000000000000000000000000000000000000000
310
00000000000000000000000000000000000000000000000000000000000000000000000000000000000000000000000000000000000000000000000000000000000000000000000000000000000000000000000000000000000000000000000000000000000000000000000000000000000000000000000000000000000000
310
00000000000000000000000000000000000000000000000000000000000000000000000000000000000000000000000000000000000000000000000000000000000000000000000000000000000000000000000000000000000000000000000000000000000000000000000000000000000000000000000000000000000000
310
00000000000000000000000000000000000000000000000000000000000000000000000000000000000000000000000000000000000000000000000000000000000000000000000000000000000000000000000000000000000000000000000000000000000000000000000000000000000000000000000000000000000000
310
00000000000000000000000000000000000000000000000000000000000000000000000000000000000000000000000000000000000000000000000000000000000000000000000000000000000000000000000000000000000000000000000000000000000000000000000000000000000000000000000000000000000000
310
00000000000000000000000000000000000000000000000000000000000000000000000000000000000000000000000000000000000000000000000000000000000000000000000000000000000000000000000000000000000000000000000000000000000000000000000000000000000000000000000000000000000000
310
00000000000000000000000000000000000000000000000000000000000000000000000000000000000000000000000000000000000000000000000000000000000000000000000000000000000000000000000000000000000000000000000000000000000000000000000000000000000000000000000000000000000000
310
00000000000000000000000000000000000000000000000000000000000000000000000000000000000000000000000000000000000000000000000000000000000000000000000000000000000000000000000000000000000000000000000000000000000000000000000000000000000000000000000000000000000000
310
00000000000000000000000000000000000000000000000000000000000000000000000000000000000000000000000000000000000000000000000000000000000000000000000000000000000000000000000000000000000000000000000000000000000000000000000000000000000000000000000000000000000000
310
00000000000000000000000000000000000000000000000000000000000000000000000000000000000000000000000000000000000000000000000000000000000000000000000000000000000000000000000000000000000000000000000000000000000000000000000000000000000000000000000000000000000000
310
00000000000000000000000000000000000000000000000000000000000000000000000000000000000000000000000000000000000000000000000000000000000000000000000000000000000000000000000000000000000000000000000000000000000000000000000000000000000000000000000000000000000000
310
00000000000000000000000000000000000000000000000000000000000000000000000000000000000000000000000000000000000000000000000000000000000000000000000000000000000000000000000000000000000000000000000000000000000000000000000000000000000000000000000000000000000000
310
00000000000000000000000000000000000000000000000000000000000000000000000000000000000000000000000000000000000000000000000000000000000000000000000000000000000000000000000000000000000000000000000000000000000000000000000000000000000000000000000000000000000096
310
00000000000000000000000000000000000000000000000000000000000000000000000000000000000000000000000000000000000000000000000000000000000000000000000000000000000000000000000000000000000000000000000000000000000000000000000000000000000000000000000000000000000000
310
00000000000000000000000000000000000000000000000000000000000000000000000000000000000000000000787878787878780778787878780000000000000000000000000000000000000000000000000000000000000000000000000000000000000000000000000000000000000000000000000000000000000000
310
00000000000000000000000000000000000000000000000000000000000000000000000000000000000000000000000000000000000000000000000000000000000000000000000000000000000000000000000000000000000000000000000000000078787800007878960600060678000000000000000000000000000000
310
00000000000000000000000000000000000000000000000000000000000000000000000000000000000000000000000000000000000000000000000000000000000000000000000000000000000000000000000000000000000000000000000000000000000000000000000000000000000000000000000000000000000000
310
00000000000000000000000000000000000000000000000000787806000006789678000078780000000000000000000000000000000000000000000000000000000000000000000000000000000000000000000000000000000000000000000000000000000000000000000000000000000000000000000000000000000000
310
00000000000000000000000000000000000000000000000000000000000000000000000000000000000000000000000000000000000000000000000000000000000000000000000000000000000078787800007878009600789678000000000000000000000000000000000000000000000000000000000000000000000000
310
00000000000000000000000000000000000000000000000000000000000000000000000000000000000000000000000000000000000000000000000000000000000000000000000000000000000000000000000000000000000000000000000000000000000000000000000000000000000000000000000000000000000000
310
00000000787878787878960096969696780000000000000000000000000000000000000000000000000000000000000000000000000000000000000000000000000000000000000000000000000000000000000000000000000000000000000000000000000000000000000000000000000000000000000000000000000000
310
00000000000000000000000000000000000000000000000000000000000000000000000000000000000000000000000000000000000000000078007878780096070000070778000000000000000000000000000000000000000000000000000000000000000000000000000000000000000000000000000000000000000000
310
00000000000000000000000000000000000000000000000000000000000000000000000000000000000000000000000000000000000000000000000000000000000000000000000000000000000000000000000000000000000000000000000000000000000000000000000000007878787878789678787878787800000000
310
00000000000000000000000000000000000000000000000000000000000000000000000000000000000000000000000000000000000000000000000000000000000000000000000000000000000000000000000000000000000000000000000000000000000000000000000000000000000000000000000000000000000000
310
00000000000000000000000000000000000000000000000000000000000000000000000000000000000096000000000000000000000000000000000000000000000000000000000000000000000000000000000000000000000000000000000000000000000000000000000000000000000000000000000000000000000000
310
00000000000000000000000000000000000000000000000000000000000000000000000000000000000000000000000000000000000000000000000000000000000000000000000000000000000000000000000000000000000000000000000000000000000000000000000000000000000000000000000000000000000000
310
00000000000000000000000000000000000000000000000000000000000000000000000000000000000000000000000000000000000000000000000000000000000000000000000000000000000000000000000000000000000000000000000000000000000000000000000000000000000000000000000000000000000000
310
00000000000000000000000000000000000000000000000000000000000000000000000000000000000000000000000000000000000000000000000000000000000000000000000000000000000000000000000000000000000000000000000000000000000000000000000000000000000000000000000000000000000000
310
00000000000000000000000000000000000000000000000000000000000000000000000000000000000000000000000000000000000000000000000000000000000000000000000000000000000000000000000000000000000000000000000000000000000000000000000000000000000000000000000000000000000000
310
00000000000000000000000000000000000000000000000000000000000000000000000000000000000000000000000000000000000000000000000000000000000000000000000000000000000000000000000000000000000000000000000000000000000000000000000000000000000000000000000000000000000000
310
00000000000000000000000000000000000000000000000000000000000000000000000000000000000000000000000000000000000000000000000000000000000000000000000000000000000000000000000000000000000000000000000000000000000000000000000000000000000000000000000000000000000000
310
00000000000000000000000000000000000000000000000000000000000000000000000000000000000000000000000000000000000000000000000000000000000000000000000000000000000000000000000000000000000000000000000000000000000000000000000000000000000000000000000000000000000000
310
00000000000000000000000000000000000000000000000000000000000000000000000000000000000000000000000000000000000000000000000000000000000000000000000000000000000000000000000000000000000000000000000000000000000000000000000000000000000000000000000000000000000000
310
00000000000000000000000000000000000000000000000000000000000000000000000000000000000000000000000000000000000000000000000000000000000000000000000000000000000000000000000000000000000000000000000000000000000000000000000000000000000000000000000000000000000000
310
00000000000000000000000000000000000000000000000000000000000000000000000000000000000000000000000000000000000000000000000000000000000000000000000000000000000000000000000000000000000000000000000000000000000000000000000000000000000000000000000000000000000000
310
00000000000000000000000000000000000000000000000000000000000000000000000000000000000000000000000000000000000000000000000000000000000000000000000000000000000000000000000000960000000000000000000000000000000000000000000000000000000000000000000000000000000000
310
00000000000000000000000000000000000000000000000000000000000000000000000000000000000000000000000000000000000000000000000000000000000000000000000000000000000000000000000000000000000000000000000000000000000000000000000000000000000000000000787878787878787800
310
00000000000707070707079607070707070700000000000000000000787878787878787800000000000000000000000000000000000000000000000000000000000000000000000000000000000000000000000000000000000000000000000000000000000000000000000000000000000000000000000000000000000000
310
00000000000000000000000000000000000000000000000000000000000000000000000000000000000000007800007802020078000000000000070707070707960707070707070000000000000000000078000000000000780000000000000000000000000000000000000000000000000000000000000000000000000000
310
00000000000000000000000000000000000000000000000000000000000000000000000000000000000000000000000000000000000000000000000000000000000000000000000000000000000000000000000000000000000000000000000000787878787878787800000000000007070707070796070707070707000000
310
00000000000000780000000000007800000000000000000000000000000000000000000000000000000000000000000000000000000000000000000000000000000000000000000000000000000000000000000000000000000000000000000000000000000000000000000000000000000000000000000000000000000000
310
00000000000000000000000000000000000000000000007800000000007878000000000000787807079607960707969678780000000000000000000078000000000000780000000000000000000000000000000000000000000000000000000000000000000000000000000000000000000000000000000000000000000000
310
00000000000000000000000000000000000000000000000000000000000000000000000000000000000000000000000000000000000000000000000000000000000000000000000000000000787878787878787800000000000078780796000796070700967878000000000000000000007878787878000078000000000000
310
00000000000000000000000000000000000000000000000000000000000000000000000000000000000000000000000000000000000000000000000000000000000000000000000000000000000000000000000000000000000000000000000000000000000000000000000000000000000000000000000000000000000000
310
00007878787878787878000000000000787878960007960707009678780000000000000000000078787878780000780000000000000000000000000000000000000000000000000000000000000000000000000000000000000000000000000000000000000000000000000000000000000000000000000000000000000000
310
00000000000000000000000000000000000000000000000000000000000000000000000000000000000000000000000000000000000000780000000000787800000000000078787896000796070700967878000000000000000000007800000000969696000000000000000000000000000000000000000000000000000000
310
00000000000000000000000000000000000000000000000000000000000000000000000000000000000000000000000000000000000000000000000000000000000000000000000000000000000000000000000000000000000000000000000000000000000000000000000078000000000078780000000000007878789600
310
07960707009678780000000000000000000078000096967878070000000000000000000000000000000000000000000000000000000000000000000000000000000000000000000000000000000000000000000000000000000000000000000000000000000000000000000000000000000000000000000000000000000000
310
00000000000000000000000000000000000000000000000000000000000000000000787878787878787800000000000007787896000796070700967878000000000000000000007878009600070078000000000000000000000000000000000000000000000000000000000000000000000000000000000000000000000000
310
00000000000000000000000000000000000000000000000000000000000000000000000000000000000000000000000000000000000000000000000000000000000000000000000000000000000000000000000000000078787878787896780000000000009696070696079607079696787800000000000000000000969696
310
96969696960000000000000000000000000000000000000000000000000000000000000000000000000000000000000000000000000000000000000000000000000000000000000000000000000000000000000000000000000000000000000000000000000000000000000000000000000000000000000000000000000000
310
00000000000000000000000000787878787878787800000000000078787807000296020200967878000000000000000000007878789696087807000000000000000000000000000000000000000000000000000000000000000000000000000000000000000000000000000000000000000000000000000000000000000000
310
00000000000000000000000000000000000000000000000000000000000000000000000000000000000000000000000000000000000000000000000000000000000078000000000078780000000000007878789600079607460096787800000000000000000000780000000000007800000000000000000000000000000000
310
00000000000000000000000000000000000000000000000000000000000000000000000000000000000000000000000000000000000000000000000000000000000000000000000000000000000000000000000000000000000000000000000000000000000000000000000000000000000000000000007800000000007878
310
00000000000078787896007896007800967878000000000000000000007800000000000078000000000000000000000000000000000000000000000000000000000000000000000000000000000000000000000000000000000000000000000000000000000000000000000000000000000000000000000000000000000000
310
00000000000000000000000000000000000000000000000000000000000000000000000000000000000000000078787878787878780000000000007878789600789678789696787800000000000000000000787878787800007800000000000000000000000000000000000000000000000000000000000000000000000000
310
00000000000000000000000000000000000000000000000000000000000000000000000000000000000000000000000000000000000000000000000000000000000000000000000000000000000000000000000000000000000000000000000000007878787878787878000000000000787878960007967807009678780000
310
00000000000000007878787878000078000000000000000000000000000000000000000000000000000000000000000000000000000000000000000000000000000000000000000000000000000000000000000000000000000000000000000000000000000000000000000000000000000000000000000000000000000000
310
00000000000000000000000000000000000000000000000078000000000078780000000000007878789696969696969696787800000000000000000000780000000000007800000000000000000000000000000000000000000000000000000000000000000000000000000000000000000000000000000000000000000000
310
00000000000000000000000000000000000000000000000000000000000000000000000000000000000000000000000000000000000000000000000000000000000000000000000000000000007878787878787878000000000000070707070707960707070707070000000000000000000078000000000000780000000000
310
00000000000000000000000000000000000000000000000000000000000000000000000000000000000000000000000000000000000000000000000000000000000000000000000000000000000000000000000000000000000000000000000000000000000000000000000000000000000000000000000000000000000000
310
00000078000078020200780000000000000707070707079607070707070700000000000000000000780000000000007800000000000000000000000000000000000000000000000000000000000000000000000000000000000000000000000000000000000000000000000000000000000000000000000000000000000000
310
00000000000000000000000000000000000000000000000000000000000000000000000000000000000000000000000000000000000000007878787878787878000000000000070707070707960707070707070000000000000000000078787878787878780000000000000000000000000000000000000000000000000000
310
00000000000000000000000000000000000000000000000000000000000000000000000000000000000000000000000000000000000000000000000000000000000000000000000000000000000000000000000000000000000000000000000000000000000000000000000000000000000000000000000000000000000000
310
00009600000000000000000000000000000000000000000000000000000000000000000000000000000000000000000000000000000000000000000000000000000000000000000000000000000000000000000000000000000000000000000000000000000000000000000000000000000000000000000000000000000000
310
00000000000000000000000000000000000000000000000000000000000000000000000000000000000000000000000000000000000000000000000000000000000000000000000000000000000000000000000000000000000000000000000000000000000000000000000000000000000000000000000000000000000000
310
00000000000000000000000000000000000000000000000000000000000000000000000000000000000000000000000000000000000000000000000000000000000000000000000000000000000000000000000000000000000000000000000000000000000000000000000000000000000000000000000000000000000000
310
00000000000000000000000000000000000000000000000000000000000000000000000000000000000000000000000000000000000000000000000000000000000000000000000000000000000000000000000000000000000000000000000000000000000000000000000000000000000000000000000000000000000000
310
00000000000000000000000000000000000000000000000000000000000000000000000000000000000000000000000000000000000000000000000000000000000000000000000000000000000000000000000000000000000000000000000000000000000000000000000000000000000000000000000000000000000000
310
00000000000000000000000000000000000000000000000000000000000000000000000000000000000000000000000000000000000000000000000000000000000000000000000000000000000000000000000000000000000000000000000000000000000000000000000000000000000000000000000000000000000000
310
00000000000000000000000000000000000000000000000000000000000000000000000000000000000000000000000000000000000000000000000000000000000000000000000000000000000000000000000000000000000000000000000000000000000000000000000000000000000000000000000000000000000000
310
00000000000000000000000000960000000000000000000000000000000000000000000000000000000000000000000000000000000000000000000000000000000000000000000000000000000000000000000000000000000000000000000000000000000000000000000000000000000000000000000000000000000000
310
00000000000000000000000000000000000000000000000000000000000000000000000000000000000000000000000000000000000000000000000000000000000096000000000000000000000000000000000000000000000000000000000000000000000000000000000000000000000000000000000000000000000000
310
00000000000000000000000000000000000000000000000000000000000000000000000000000000000000000000000000000000000000000000000000000000000000000000000000000000000000000000000000000000000000000000000000000000000000000000000000000000007878787878789678787878787800
310
00000000000000000000000000000000000000000000000000000000000000000000000000000000000000000000000000000000000000000000000000000000000000000000000000000000000000000000000000000000000000000000000000000000000000000000000000000000000000000000000000000000000000
310
00000000000000000000000000000000000000000000000000000000000000000000000000000078007878780096070000070778000000000000000000000000000000000000000000000000000000000000000000000000000000000000000000000000000000000000000000000000000000000000000000000000000000
310
00000000000000000000000000000000000000000000000000000000000000000000000000000000000000000000000000000000000000000000000000000000000000000000000000000000000000000000000000000000000000007878787878789600009696007800000000000000000000000000000000000000000000
310
00000000000000000000000000000000000000000000000000000000000000000000000000000000000000000000000000000000000000000000000000000000000000000000000000000000000000000000000000000000000000000000000000000000000000000000000000000000000000000000000000000000000000
310
00000000000000000000000000000000000078787800007878009678789678000000000000000000000000000000000000000000000000000000000000000000000000000000000000000000000000000000000000000000000000000000000000000000000000000000000000000000000000000000000000000000000000
310
00000000000000000000000000000000000000000000000000000000000000000000000000000000000000000000000000000000000000000000000000000000000000000000007878780000787896780000787800000000000000000000000000000000000000000000000000000000000000000000000000000000000000
310
00000000000000000000000000000000000000000000000000000000000000000000000000000000000000000000000000000000000000000000000000000000000000000000000000000000000000000000000000000000000000000000000000000000000000000000000000000000000000000000000000000000787878
310
00007878960600067878000000000000000000000000000000000000000000000000000000000000000000000000000000000000000000000000000000000000000000000000000000000000000000000000000000000000000000000000000000000000000000000000000000000000000000000000000000000000000000
310
00000000000000000000000000000000000000000000000000000000000000000000000000000000000000000000000000007878787878787807787878787800000000000000000000000000000000000000000000000000000000000000000000000000000000000000000000000000000000000000000000000000000000
310
00000000000000000000000000000000000000000000000000000000000000000000000000000000000000000000000000000000000000000000000000000000000000000000000000000000000000000000000000000000000000000000000000000000000000000000000000960000000000000000000000000000000000
310
00000000000000000000000000000000000000000000000000000000000000000000000000000000000000000000000000000000000000000000000000000000000000000000000000000000000000000000000000000000000000000000000000000000000000000000000000000000000000000000000000000000000000
310
00000000000000000000000000000000000000000000000000000000000000000000000000000000000000000000000000000000000000000000000000000000000000000000000000000000000000000000000000000000000000000000000000000000000000000000000000000000000000000000000000000000000000
310
00000000000000000000000000000000000000000000000000000000000000000000000000000000000000000000000000000000000000000000000000000000000000000000000000000000000000000000000000000000000000000000000000000000000000000000000000000000000000000000000000000000000000
310
00000000000000000000000000000000000000000000000000000000000000000000000000000000000000000000000000000000000000000000000000000000000000000000000000000000000000000000000000000000000000000000000000000000000000000000000000000000000000000000000000000000000000
310
000000000000000000000000000000000000000000000000000000000000000000000000000000000000000000000000000000000000000000000000000000000000000000000000000000000000000000000000000000000000000000000000000000000000000000000000
  0
ENDSEC
  0
EOF
